请选择 进入手机版 | 继续访问电脑版
本站Q群713428235【盘盘多】已满,请新会员加原盘天堂新官方QQ群709708625【好多盘】,验证信息填写您在论坛的会员名,不填会员名的无法入群哈,进群后修改您的群名片名字为您在论坛的会员名,请务必修改,否则群成员多了不知道您是哪个会员。

原盘天堂

 找回密码
 立即注册
京东商城当当华为商城名牌时尚折扣网,一个新型的网上购物平台,我们每周为您精选3~4个国际知名品牌,商品折扣低至2折限时限量售卖,商品囊括时装、护肤品、箱包、皮具、配饰、香水等等,琳琅满目。亿格瑞A10硬盘播放器 苏宁易购
查看: 155|回复: 0

2d蓝光原盘bdmv 阿姆斯特丹 英语原版 amsterdam.2022.1080p.bluray.avc.dts-hd.ma.7.1[45.46 GB]

[复制链接]

7423

主题

8549

帖子

135万

积分

管理员

Rank: 18Rank: 18Rank: 18Rank: 18Rank: 18

积分
1353705
发表于 2022-12-30 10:26:46 | 显示全部楼层 |阅读模式









◎译  名 阿姆斯特丹/坎特伯雷花窗/Canterbury Glass
◎片  名 Amsterdam
◎年  代 2022
◎产  地 美国
◎类  别 喜剧/悬疑/历史
◎语  言 英语
◎上映日期 2022-09-27(美国IMAX)/2022-10-07(美国)
◎IMDb链接 https://www.imdb.com/title/tt10304142/
◎豆瓣评分 5.8/10 from 4826 users
◎豆瓣链接 https://douban.com/subject/33434802/
◎片  长 134分钟
◎导  演 大卫·O·拉塞尔 David O. Russell
◎编  剧 大卫·O·拉塞尔 David O. Russell
◎主  演 克里斯蒂安·贝尔 Christian Bale
      玛格特·罗比 Margot Robbie
      约翰·大卫·华盛顿 John David Washington
      亚历桑德罗·尼沃拉 Alessandro Nivola
      安德丽娅·赖斯伯勒 Andrea Riseborough
      安雅·泰勒-乔伊 Anya Taylor-Joy
      克里斯·洛克 Chris Rock
      马提亚斯·修奈尔 Matthias Schoenaerts
      迈克尔·珊农 Michael Shannon
      麦克·梅尔斯 Mike Myers
      泰勒·斯威夫特 Taylor Swift
      蒂莫西·奥利芬特 Timothy Olyphant
      佐伊·索尔达娜 Zoe Saldana
      拉米·马雷克 Rami Malek
      罗伯特·德尼罗 Robert De Niro
      梅尔·法尔 Mel Fair
      邦尼·赫尔曼 Bonnie Hellman
      马克斯·佩利希 Max Perlich
      小艾德·博格里 Ed Begley Jr.
      考林·加普 Colleen Camp
      劳伦·肖 Lauren Shaw
      布兰登·戴维斯 Brandon Davis
      凯西·比格斯 Casey Biggs
      戴·扬 Dey Young
      肖恩·艾弗里 Sean Avery
      洁基伯明翰 Gigi Bermingham
      瑞贝卡·薇索基 Rebecca Wisocky
      史蒂文·哈克 Steven Hack
      贝丝·格兰特 Beth Grant
      汤姆·埃尔文 Tom Irwin
      利兰·奥瑟 Leland Orser
      马丁·威廉·哈里斯 Martin William Harris
      文森特·M·比肖内 Vincent M. Biscione
      詹姆斯·亨特 James Hunter
      亚当·G·西蒙 Adam G. Simon

◎简  介

  
  三位好友,一桩谜案,惊天阴谋,即将揭晓...... 全明星阵容共同演绎,奥斯卡提名导演大卫·O·拉塞尔执导,克里斯蒂安·贝尔、玛格特·罗比、约翰·大卫·华盛顿主演,泰勒·斯威夫特惊喜亮相!当目击者变成嫌疑人,身处风暴中心的他们,该如何守护彼此,发现真相?
  

DISC INFO:

Disc Title:     Amsterdam.2022.COMPLETE.BLURAY-UNTOUCHED
Disc Size:      48,799,089,276 bytes
Protection:     AACS
Extras:         BD-Java
BDInfo:         0.7.5.9 (compatible layout created by DVDFab 12.0.9.2)

PLAYLIST REPORT:

Name:                   00800.MPLS  
Length:                 2:14:14.880 (h:m:s.ms)
Size:                   43,761,991,680 bytes
Total Bitrate:          43.46 Mbps

VIDEO:

Codec                   Bitrate             Description   
-----                   -------             -----------   
MPEG-4 AVC Video        31763 kbps          1080p / 23.976 fps / 16:9 / High Profile 4.1

AUDIO:

Codec                           Language        Bitrate         Description   
-----                           --------        -------         -----------   
DTS-HD Master Audio             English         4056 kbps       7.1 / 48 kHz / 4056 kbps / 24-bit (DTS Core: 5.1 / 48 kHz / 1509 kbps / 24-bit)
Dolby Digital Audio             English         320 kbps        2.0 / 48 kHz / 320 kbps
Dolby Digital Plus Audio        French          896 kbps        7.1 / 48 kHz / 896 kbps (AC3 Core: 5.1 / 48 kHz / 512 kbps ( Core: 5.1 / 48 kHz / 512 kbps))
Dolby Digital Plus Audio        German          896 kbps        7.1 / 48 kHz / 896 kbps (AC3 Core: 5.1 / 48 kHz / 512 kbps ( Core: 5.1 / 48 kHz / 512 kbps))
Dolby Digital Plus Audio        Italian         896 kbps        7.1 / 48 kHz / 896 kbps (AC3 Core: 5.1 / 48 kHz / 512 kbps ( Core: 5.1 / 48 kHz / 512 kbps))
DTS Audio                       Spanish         1509 kbps       5.1 / 48 kHz / 1509 kbps / 24-bit

SUBTITLES:

Codec                           Language        Bitrate         Description   
-----                           --------        -------         -----------   
Presentation Graphics           English         72.769 kbps                    
Presentation Graphics           French          52.564 kbps                    
Presentation Graphics           German          53.663 kbps                    
Presentation Graphics           Italian         56.093 kbps                    
Presentation Graphics           Spanish         56.309 kbps                    
Presentation Graphics           Dutch           53.262 kbps                    
Presentation Graphics           Danish          53.594 kbps                    
Presentation Graphics           Finnish         61.847 kbps                    
Presentation Graphics           Norwegian       53.769 kbps                    
Presentation Graphics           Swedish         49.891 kbps                    
Presentation Graphics           English         0.603 kbps                     
Presentation Graphics           French          0.711 kbps                     
Presentation Graphics           German          0.928 kbps                     
Presentation Graphics           Italian         1.356 kbps                     
Presentation Graphics           Spanish         1.369 kbps  

Video
ID : 1
ID in the original source medium : 4113 (0x1011)
Format : AVC
Format/Info : Advanced Video Codec
Format profile : [email protected]
Format settings : CABAC / 4 Ref Frames
Format settings, CABAC : Yes
Format settings, Reference frames : 4 frames
Codec ID : V_MPEG4/ISO/AVC
Duration : 2 h 14 min
Bit rate mode : Variable
Bit rate : 31.6 Mb/s
Maximum bit rate : 35.1 Mb/s
Width : 1 920 pixels
Height : 1 080 pixels
Display aspect ratio : 16:9
Frame rate mode : Constant
Frame rate : 23.976 (24000/1001) FPS
Color space : YUV
Chroma subsampling : 4:2:0
Bit depth : 8 bits
Scan type : Progressive
Bits/(Pixel*Frame) : 0.636
Stream size : 29.7 GiB (78%)
Language : English
Default : No
Forced : No
Original source medium : Blu-ray

Audio #1
ID : 2
ID in the original source medium : 4352 (0x1100)
Format : DTS XLL
Format/Info : Digital Theater Systems
Commercial name : DTS-HD Master Audio
Codec ID : A_DTS
Duration : 2 h 14 min
Bit rate mode : Variable
Bit rate : 4 056 kb/s
Channel(s) : 8 channels
Channel layout : C L R LFE Lb Rb Lss Rss
Sampling rate : 48.0 kHz
Frame rate : 93.750 FPS (512 SPF)
Bit depth : 24 bits
Compression mode : Lossless
Stream size : 3.80 GiB (10%)
Title : DTS-HD MA 7.1
Language : English
Default : Yes
Forced : No
Original source medium : Blu-ray

Audio #2
ID : 3
ID in the original source medium : 4353 (0x1101)
Format : AC-3
Format/Info : Audio Coding 3
Commercial name : Dolby Digital
Codec ID : A_AC3
Duration : 2 h 14 min
Bit rate mode : Constant
Bit rate : 320 kb/s
Channel(s) : 2 channels
Channel layout : L R
Sampling rate : 48.0 kHz
Frame rate : 31.250 FPS (1536 SPF)
Compression mode : Lossy
Stream size : 307 MiB (1%)
Title : DD 2.0
Language : English
Service kind : Complete Main
Default : No
Forced : No
Original source medium : Blu-ray

Audio #3
ID : 4
Format : E-AC-3
Format/Info : Enhanced AC-3
Commercial name : Dolby Digital Plus
Format profile : Blu-ray Disc
Codec ID : A_EAC3
Duration : 2 h 14 min
Bit rate mode : Constant
Bit rate : 896 kb/s
Channel(s) : 8 channels
Channel layout : L R C LFE Ls Rs Lb Rb
Sampling rate : 48.0 kHz
Frame rate : 31.250 FPS (1536 SPF)
Compression mode : Lossy
Stream size : 860 MiB (2%)
Title : DDP 7.1
Language : French
Service kind : Complete Main
Default : No
Forced : No

Audio #4
ID : 5
Format : E-AC-3
Format/Info : Enhanced AC-3
Commercial name : Dolby Digital Plus
Format profile : Blu-ray Disc
Codec ID : A_EAC3
Duration : 2 h 14 min
Bit rate mode : Constant
Bit rate : 896 kb/s
Channel(s) : 8 channels
Channel layout : L R C LFE Ls Rs Lb Rb
Sampling rate : 48.0 kHz
Frame rate : 31.250 FPS (1536 SPF)
Compression mode : Lossy
Stream size : 860 MiB (2%)
Title : DDP 7.1
Language : German
Service kind : Complete Main
Default : No
Forced : No

Audio #5
ID : 6
Format : E-AC-3
Format/Info : Enhanced AC-3
Commercial name : Dolby Digital Plus
Format profile : Blu-ray Disc
Codec ID : A_EAC3
Duration : 2 h 14 min
Bit rate mode : Constant
Bit rate : 896 kb/s
Channel(s) : 8 channels
Channel layout : L R C LFE Ls Rs Lb Rb
Sampling rate : 48.0 kHz
Frame rate : 31.250 FPS (1536 SPF)
Compression mode : Lossy
Stream size : 860 MiB (2%)
Title : DDP 7.1
Language : Italian
Service kind : Complete Main
Default : No
Forced : No

Audio #6
ID : 7
ID in the original source medium : 4357 (0x1105)
Format : DTS
Format/Info : Digital Theater Systems
Codec ID : A_DTS
Duration : 2 h 14 min
Bit rate mode : Constant
Bit rate : 1 509 kb/s
Channel(s) : 6 channels
Channel layout : C L R Ls Rs LFE
Sampling rate : 48.0 kHz
Frame rate : 93.750 FPS (512 SPF)
Bit depth : 24 bits
Compression mode : Lossy
Stream size : 1.42 GiB (4%)
Title : DTS 5.1
Language : Spanish
Default : No
Forced : No
Original source medium : Blu-ray

Text #1
ID : 8
Format : UTF-8
Codec ID : S_TEXT/UTF8
Codec ID/Info : UTF-8 Plain Text
Duration : 6 min 14 s
Bit rate : 18 b/s
Frame rate : 0.115 FPS
Count of elements : 43
Stream size : 846 Bytes (0%)
Title : FORCED
Language : English
Default : No
Forced : Yes

Text #2
ID : 9
Format : UTF-8
Codec ID : S_TEXT/UTF8
Codec ID/Info : UTF-8 Plain Text
Duration : 2 h 6 min
Bit rate : 101 b/s
Frame rate : 0.392 FPS
Count of elements : 2972
Stream size : 94.1 KiB (0%)
Language : English
Default : Yes
Forced : No

Text #3
ID : 10
Format : UTF-8
Codec ID : S_TEXT/UTF8
Codec ID/Info : UTF-8 Plain Text
Duration : 2 h 12 min
Bit rate : 103 b/s
Frame rate : 0.397 FPS
Count of elements : 3155
Stream size : 100 KiB (0%)
Title : SDH
Language : English
Default : No
Forced : No

Text #4
ID : 11
ID in the original source medium : 4608 (0x1200)
Format : PGS
Muxing mode : zlib
Codec ID : S_HDMV/PGS
Codec ID/Info : Picture based subtitle format used on BDs/HD-DVDs
Duration : 2 h 12 min
Bit rate : 73.7 kb/s
Frame rate : 0.794 FPS
Count of elements : 6318
Stream size : 69.9 MiB (0%)
Language : English
Default : No
Forced : No
Original source medium : Blu-ray

Text #5
ID : 12
ID in the original source medium : 4609 (0x1201)
Format : PGS
Muxing mode : zlib
Codec ID : S_HDMV/PGS
Codec ID/Info : Picture based subtitle format used on BDs/HD-DVDs
Duration : 2 h 13 min
Bit rate : 52.9 kb/s
Frame rate : 0.573 FPS
Count of elements : 4582
Stream size : 50.5 MiB (0%)
Language : French
Default : No
Forced : No
Original source medium : Blu-ray

Text #6
ID : 13
ID in the original source medium : 4610 (0x1202)
Format : PGS
Muxing mode : zlib
Codec ID : S_HDMV/PGS
Codec ID/Info : Picture based subtitle format used on BDs/HD-DVDs
Duration : 2 h 13 min
Bit rate : 54.0 kb/s
Frame rate : 0.597 FPS
Count of elements : 4772
Stream size : 51.5 MiB (0%)
Language : German
Default : No
Forced : No
Original source medium : Blu-ray

Text #7
ID : 14
ID in the original source medium : 4611 (0x1203)
Format : PGS
Muxing mode : zlib
Codec ID : S_HDMV/PGS
Codec ID/Info : Picture based subtitle format used on BDs/HD-DVDs
Duration : 2 h 13 min
Bit rate : 56.5 kb/s
Frame rate : 0.613 FPS
Count of elements : 4904
Stream size : 53.9 MiB (0%)
Language : Italian
Default : No
Forced : No
Original source medium : Blu-ray

Text #8
ID : 15
ID in the original source medium : 4612 (0x1204)
Format : PGS
Muxing mode : zlib
Codec ID : S_HDMV/PGS
Codec ID/Info : Picture based subtitle format used on BDs/HD-DVDs
Duration : 2 h 13 min
Bit rate : 56.7 kb/s
Frame rate : 0.612 FPS
Count of elements : 4894
Stream size : 54.1 MiB (0%)
Language : Spanish
Default : No
Forced : No
Original source medium : Blu-ray

Text #9
ID : 16
ID in the original source medium : 4613 (0x1205)
Format : PGS
Muxing mode : zlib
Codec ID : S_HDMV/PGS
Codec ID/Info : Picture based subtitle format used on BDs/HD-DVDs
Duration : 2 h 13 min
Bit rate : 53.6 kb/s
Frame rate : 0.517 FPS
Count of elements : 4132
Stream size : 51.1 MiB (0%)
Language : Dutch
Default : No
Forced : No
Original source medium : Blu-ray

Text #10
ID : 17
ID in the original source medium : 4614 (0x1206)
Format : PGS
Muxing mode : zlib
Codec ID : S_HDMV/PGS
Codec ID/Info : Picture based subtitle format used on BDs/HD-DVDs
Duration : 2 h 13 min
Bit rate : 54.0 kb/s
Frame rate : 0.459 FPS
Count of elements : 3674
Stream size : 51.5 MiB (0%)
Language : Danish
Default : No
Forced : No
Original source medium : Blu-ray

Text #11
ID : 18
ID in the original source medium : 4615 (0x1207)
Format : PGS
Muxing mode : zlib
Codec ID : S_HDMV/PGS
Codec ID/Info : Picture based subtitle format used on BDs/HD-DVDs
Duration : 2 h 13 min
Bit rate : 62.3 kb/s
Frame rate : 0.612 FPS
Count of elements : 4896
Stream size : 59.4 MiB (0%)
Language : Finnish
Default : No
Forced : No
Original source medium : Blu-ray

Text #12
ID : 19
ID in the original source medium : 4616 (0x1208)
Format : PGS
Muxing mode : zlib
Codec ID : S_HDMV/PGS
Codec ID/Info : Picture based subtitle format used on BDs/HD-DVDs
Duration : 2 h 13 min
Bit rate : 54.2 kb/s
Frame rate : 0.612 FPS
Count of elements : 4896
Stream size : 51.6 MiB (0%)
Language : Norwegian
Default : No
Forced : No
Original source medium : Blu-ray

Text #13
ID : 20
ID in the original source medium : 4617 (0x1209)
Format : PGS
Muxing mode : zlib
Codec ID : S_HDMV/PGS
Codec ID/Info : Picture based subtitle format used on BDs/HD-DVDs
Duration : 2 h 13 min
Bit rate : 50.2 kb/s
Frame rate : 0.423 FPS
Count of elements : 3386
Stream size : 47.9 MiB (0%)
Language : Swedish
Default : No
Forced : No
Original source medium : Blu-ray

Text #14
ID : 21
ID in the original source medium : 4618 (0x120A)
Format : PGS
Muxing mode : zlib
Codec ID : S_HDMV/PGS
Codec ID/Info : Picture based subtitle format used on BDs/HD-DVDs
Duration : 6 min 14 s
Bit rate : 13.0 kb/s
Frame rate : 0.230 FPS
Count of elements : 86
Stream size : 593 KiB (0%)
Title : FORCED
Language : English
Default : No
Forced : No
Original source medium : Blu-ray

Text #15
ID : 22
ID in the original source medium : 4619 (0x120B)
Format : PGS
Muxing mode : zlib
Codec ID : S_HDMV/PGS
Codec ID/Info : Picture based subtitle format used on BDs/HD-DVDs
Duration : 2 h 6 min
Bit rate : 753 b/s
Frame rate : 0.006 FPS
Count of elements : 46
Stream size : 699 KiB (0%)
Title : FORCED
Language : French
Default : No
Forced : No
Original source medium : Blu-ray

Text #16
ID : 23
ID in the original source medium : 4620 (0x120C)
Format : PGS
Muxing mode : zlib
Codec ID : S_HDMV/PGS
Codec ID/Info : Picture based subtitle format used on BDs/HD-DVDs
Duration : 2 h 6 min
Bit rate : 985 b/s
Frame rate : 0.013 FPS
Count of elements : 102
Stream size : 912 KiB (0%)
Title : FORCED
Language : German
Default : No
Forced : No
Original source medium : Blu-ray

Text #17
ID : 24
ID in the original source medium : 4621 (0x120D)
Format : PGS
Muxing mode : zlib
Codec ID : S_HDMV/PGS
Codec ID/Info : Picture based subtitle format used on BDs/HD-DVDs
Duration : 2 h 6 min
Bit rate : 1 439 b/s
Frame rate : 0.018 FPS
Count of elements : 140
Stream size : 1.30 MiB (0%)
Title : FORCED
Language : Italian
Default : No
Forced : No
Original source medium : Blu-ray

Text #18
ID : 25
ID in the original source medium : 4622 (0x120E)
Format : PGS
Muxing mode : zlib
Codec ID : S_HDMV/PGS
Codec ID/Info : Picture based subtitle format used on BDs/HD-DVDs
Duration : 2 h 6 min
Bit rate : 1 453 b/s
Frame rate : 0.018 FPS
Count of elements : 134
Stream size : 1.31 MiB (0%)
Title : FORCED
Language : Spanish
Default : No
Forced : No
Original source medium : Blu-ray

Menu
00:00:00.000 : en:Chapter 01
00:07:10.555 : en:Chapter 02
00:15:38.228 : en:Chapter 03
00:26:46.438 : en:Chapter 04
00:33:22.291 : en:Chapter 05
00:45:19.466 : en:Chapter 06
00:50:57.721 : en:Chapter 07
01:02:26.576 : en:Chapter 08
01:12:40.731 : en:Chapter 09
01:20:57.352 : en:Chapter 10
01:25:32.043 : en:Chapter 11
01:32:46.310 : en:Chapter 12
01:35:32.977 : en:Chapter 13
01:39:08.817 : en:Chapter 14
01:42:45.492 : en:Chapter 15
01:49:23.306 : en:Chapter 16
01:55:52.320 : en:Chapter 17
02:07:03.449 : en:Chapter 18

本帖子中包含更多资源

您需要 登录 才可以下载或查看,没有帐号?立即注册

x
回复

使用道具 举报

您需要登录后才可以回帖 登录 | 立即注册

本版积分规则

QQ|Archiver|手机版|小黑屋|原盘天堂 好多盘 点击这里给我发消息

GMT+8, 2023-1-29 11:18 , Processed in 0.043228 second(s), 25 queries .

Powered by Discuz! X3.4

Copyright © 2001-2021, Tencent Cloud.

快速回复 返回顶部 返回列表