请选择 进入手机版 | 继续访问电脑版
本站Q群713428235【盘盘多】已满,请新会员加原盘天堂新官方QQ群709708625【好多盘】,验证信息填写您在论坛的会员名,不填会员名的无法入群哈,进群后修改您的群名片名字为您在论坛的会员名,请务必修改,否则群成员多了不知道您是哪个会员。

原盘天堂

 找回密码
 立即注册
京东商城当当华为商城名牌时尚折扣网,一个新型的网上购物平台,我们每周为您精选3~4个国际知名品牌,商品折扣低至2折限时限量售卖,商品囊括时装、护肤品、箱包、皮具、配饰、香水等等,琳琅满目。亿格瑞A10硬盘播放器 苏宁易购
查看: 107|回复: 0

2d蓝光原盘bdmv 金屋藏娇 英语原版 the.good.house.2021.1080p.bluray.avc.dts-hd.ma.5.1[22.27 GB]

[复制链接]

7423

主题

8549

帖子

135万

积分

管理员

Rank: 18Rank: 18Rank: 18Rank: 18Rank: 18

积分
1353705
发表于 2022-12-30 10:05:55 | 显示全部楼层 |阅读模式






◎译  名 金屋藏娇/金房子/金屋/醉佳笋盘(港)
◎片  名 The Good House
◎年  代 2021
◎产  地 美国
◎类  别 剧情/喜剧
◎语  言 英语
◎上映日期 2021-09-15(多伦多电影节)/2022-09-30(美国)
◎IMDb评分 6.4/10 from 1440 users
◎IMDb链接 https://www.imdb.com/title/tt3104956/
◎豆瓣评分 /10 from 0 users
◎豆瓣链接 https://douban.com/subject/26007929/
◎片  长 114分钟
◎导  演 玛雅·福布斯 Maya Forbes / 华莱士·沃洛达斯基 Wallace Wolodarsky
◎编  剧 托马斯·伯祖查 Thomas Bezucha / 玛雅·福布斯 Maya Forbes / 华莱士·沃洛达斯基 Wallace Wolodarsky
◎主  演 西格妮·韦弗 Sigourney Weaver
      凯文·克莱恩 Kevin Kline
      莫蕾娜·巴卡琳 Morena Baccarin
      罗伯·德兰尼 Rob Delaney
      大卫·拉斯彻 David Rasche
      瑞贝卡·亨德森 Rebecca Henderson
      凯瑟琳·厄布 Kathryn Erbe
      凯利·奥科 Kelly AuCoin
      乔治亚·莱曼 Georgia Lyman
      比佛莉·德安姬罗 Beverly D'Angelo
      保罗·吉尔福伊尔 Paul Guilfoyle

◎简  介

  
  曾是顶级地产经纪的希迪(西格妮·韦弗 饰),表面上生活富足,对人谈笑风生。其实事业早已滑坡,家庭亦诸多问题。面对生活压力,希迪一直咬紧牙关;就算在好友瑞贝卡(莫蕾娜·巴卡琳 饰)及旧爱范克(凯文·克莱恩 饰)面前,亦不敢吐露心声。唯有三杯落肚,才可令她放松心情,做回自己。经常饮至烂醉的她,终于在一次次“断片”后,闯出了弥天大祸。

DISC INFO:

Disc Title:     The.Good.House.2021.COMPLETE.BLURAY-iNTEGRUM
Disc Size:      23,915,098,660 bytes
Protection:     AACS
Extras:         BD-Java
BDInfo:         0.7.5.9 (compatible layout created by DVDFab 12.0.9.2)

PLAYLIST REPORT:

Name:                   00001.MPLS  
Length:                 1:43:07.139 (h:m:s.ms)
Size:                   22,606,786,560 bytes
Total Bitrate:          29.23 Mbps

VIDEO:

Codec                   Bitrate             Description   
-----                   -------             -----------   
MPEG-4 AVC Video        24002 kbps          1080p / 23.976 fps / 16:9 / High Profile 4.1

AUDIO:

Codec                           Language        Bitrate         Description   
-----                           --------        -------         -----------   
DTS-HD Master Audio             English         3381 kbps       5.1 / 48 kHz / 3381 kbps / 24-bit (DTS Core: 5.1 / 48 kHz / 1509 kbps / 24-bit)
Dolby Digital Audio             English         192 kbps        2.0 / 48 kHz / 192 kbps

SUBTITLES:

Codec                           Language        Bitrate         Description   
-----                           --------        -------         -----------   
Presentation Graphics           English         54.053 kbps                    
Presentation Graphics           Spanish         43.779 kbps   

Video
ID : 1
ID in the original source medium : 4113 (0x1011)
Format : AVC
Format/Info : Advanced Video Codec
Format profile : [email protected]
Format settings : CABAC / 4 Ref Frames
Format settings, CABAC : Yes
Format settings, Reference frames : 4 frames
Codec ID : V_MPEG4/ISO/AVC
Duration : 1 h 43 min
Bit rate mode : Variable
Bit rate : 24.0 Mb/s
Maximum bit rate : 35.0 Mb/s
Width : 1 920 pixels
Height : 1 080 pixels
Display aspect ratio : 16:9
Frame rate mode : Constant
Frame rate : 23.976 (24000/1001) FPS
Standard : NTSC
Color space : YUV
Chroma subsampling : 4:2:0
Bit depth : 8 bits
Scan type : Progressive
Bits/(Pixel*Frame) : 0.483
Stream size : 17.3 GiB (87%)
Language : English
Default : No
Forced : No
Color range : Limited
Color primaries : BT.709
Transfer characteristics : BT.709
Matrix coefficients : BT.709
Original source medium : Blu-ray

Audio #1
ID : 2
ID in the original source medium : 4352 (0x1100)
Format : DTS XLL
Format/Info : Digital Theater Systems
Commercial name : DTS-HD Master Audio
Codec ID : A_DTS
Duration : 1 h 43 min
Bit rate mode : Variable
Bit rate : 3 381 kb/s
Channel(s) : 6 channels
Channel layout : C L R Ls Rs LFE
Sampling rate : 48.0 kHz
Frame rate : 93.750 FPS (512 SPF)
Bit depth : 24 bits
Compression mode : Lossless
Stream size : 2.43 GiB (12%)
Title : DTS-HD MA 5.1
Language : English
Default : Yes
Forced : No
Original source medium : Blu-ray

Audio #2
ID : 3
ID in the original source medium : 4353 (0x1101)
Format : AC-3
Format/Info : Audio Coding 3
Commercial name : Dolby Digital
Codec ID : A_AC3
Duration : 1 h 43 min
Bit rate mode : Constant
Bit rate : 192 kb/s
Channel(s) : 2 channels
Channel layout : L R
Sampling rate : 48.0 kHz
Frame rate : 31.250 FPS (1536 SPF)
Compression mode : Lossy
Stream size : 142 MiB (1%)
Title : DD 2.0
Language : English
Service kind : Complete Main
Default : No
Forced : No
Original source medium : Blu-ray

Text #1
ID : 4
Format : UTF-8
Codec ID : S_TEXT/UTF8
Codec ID/Info : UTF-8 Plain Text
Duration : 1 h 36 min
Bit rate : 76 b/s
Frame rate : 0.300 FPS
Count of elements : 1734
Stream size : 54.1 KiB (0%)
Language : English
Default : Yes
Forced : No

Text #2
ID : 5
Format : UTF-8
Codec ID : S_TEXT/UTF8
Codec ID/Info : UTF-8 Plain Text
Duration : 1 h 40 min
Bit rate : 79 b/s
Frame rate : 0.308 FPS
Count of elements : 1855
Stream size : 58.5 KiB (0%)
Title : SDH
Language : English
Default : No
Forced : No

Text #3
ID : 6
ID in the original source medium : 4608 (0x1200)
Format : PGS
Muxing mode : zlib
Codec ID : S_HDMV/PGS
Codec ID/Info : Picture based subtitle format used on BDs/HD-DVDs
Duration : 1 h 40 min
Bit rate : 55.5 kb/s
Frame rate : 0.620 FPS
Count of elements : 3734
Stream size : 39.9 MiB (0%)
Language : English
Default : No
Forced : No
Original source medium : Blu-ray

Text #4
ID : 7
ID in the original source medium : 4609 (0x1201)
Format : PGS
Muxing mode : zlib
Codec ID : S_HDMV/PGS
Codec ID/Info : Picture based subtitle format used on BDs/HD-DVDs
Duration : 1 h 36 min
Bit rate : 46.8 kb/s
Frame rate : 0.546 FPS
Count of elements : 3160
Stream size : 32.3 MiB (0%)
Language : Spanish
Default : No
Forced : No
Original source medium : Blu-ray

Menu
00:00:00.000 : en:Chapter 01
00:04:50.915 : en:Chapter 02
00:12:07.476 : en:Chapter 03
00:19:30.169 : en:Chapter 04
00:25:13.512 : en:Chapter 05
00:32:54.764 : en:Chapter 06
00:39:53.140 : en:Chapter 07
00:42:56.574 : en:Chapter 08
00:48:46.882 : en:Chapter 09
00:55:53.350 : en:Chapter 10
01:05:26.631 : en:Chapter 11
01:13:07.299 : en:Chapter 12
01:19:07.659 : en:Chapter 13
01:24:26.102 : en:Chapter 14
01:30:11.406 : en:Chapter 15
01:38:04.879 : en:Chapter 16

本帖子中包含更多资源

您需要 登录 才可以下载或查看,没有帐号?立即注册

x
回复

使用道具 举报

您需要登录后才可以回帖 登录 | 立即注册

本版积分规则

QQ|Archiver|手机版|小黑屋|原盘天堂 好多盘 点击这里给我发消息

GMT+8, 2023-1-29 11:20 , Processed in 0.042063 second(s), 25 queries .

Powered by Discuz! X3.4

Copyright © 2001-2021, Tencent Cloud.

快速回复 返回顶部 返回列表