请选择 进入手机版 | 继续访问电脑版
本站Q群713428235【盘盘多】已满,请新会员加原盘天堂新官方QQ群709708625【好多盘】,验证信息填写您在论坛的会员名,不填会员名的无法入群哈,进群后修改您的群名片名字为您在论坛的会员名,请务必修改,否则群成员多了不知道您是哪个会员。

原盘天堂

 找回密码
 立即注册
京东商城当当华为商城名牌时尚折扣网,一个新型的网上购物平台,我们每周为您精选3~4个国际知名品牌,商品折扣低至2折限时限量售卖,商品囊括时装、护肤品、箱包、皮具、配饰、香水等等,琳琅满目。亿格瑞A10硬盘播放器 苏宁易购
查看: 81|回复: 0

2d蓝光原盘bdmv 虎口拔牙 修复版 英语原版 the.driver.1978.remastered.1080p.bluray.avc.lpcm.2.0[42.59 GB]

[复制链接]

7423

主题

8549

帖子

135万

积分

管理员

Rank: 18Rank: 18Rank: 18Rank: 18Rank: 18

积分
1353705
发表于 2022-12-30 09:01:02 | 显示全部楼层 |阅读模式








◎译  名 虎口拔牙/司机
◎片  名 The Driver
◎年  代 1978
◎产  地 美国
◎类  别 动作/惊悚/犯罪
◎语  言 英语
◎上映日期 1978-06-08
◎IMDb评分 7.1/10 from 17139 users
◎IMDb链接 https://www.imdb.com/title/tt0077474/
◎豆瓣评分 7.4/10 from 687 users
◎豆瓣链接 https://douban.com/subject/1297348/
◎片  长 91 分钟
◎导  演 沃尔特·希尔 Walter Hill
◎编  剧 沃尔特·希尔 Walter Hill
◎主  演 瑞安·奥尼尔 Ryan O'Neal
      布鲁斯·邓恩 Bruce Dern
      伊莎贝尔·阿佳妮 Isabelle Adjani
      罗尼·布莱克利 Ronee Blakley
      马特·克拉克 Matt Clark
      菲利斯·奥兰迪 Felice Orlandi
      约瑟夫·沃尔什 Joseph Walsh
      鲁迪·拉莫斯 Rudy Ramos
      Denny Macko Denny Macko
      鲍勃·米诺 Bob Minor
      皮特·杰森 Peter Jason
      阿兰·格拉夫 Allan Graf

◎简  介

  
  "The Driver" is specialist in a rare business: he drives getaway cars in robberies. His exceptional talent prevented him from being caught yet. After another succeeded flight from the police, a self-assured detective makes it his primary goal to catch the Driver. He promises remission of of punishment to a gang if they help to convict him in a set-up robbery. The Driver seeks help from the player Isabelle to mislead the detective.

      "司机 "是一个罕见的行业专家:他在抢劫案中驾驶逃跑的汽车。他的特殊才能使他还没有被抓住。在又一次成功躲避警察的追捕后,一个自信的侦探把抓住司机作为他的首要目标。他向一个团伙承诺,如果他们在一起抢劫案中帮助他定罪,就可以减免处罚。司机寻求玩家伊莎贝尔的帮助来误导侦探。

DISC INFO:

Disc Title:     The.Driver.1978.REMASTERED.1080p.BluRay.AVC.LPCM.2.0-SharpHD
Disc Size:      45,720,795,213 bytes
Protection:     AACS
Extras:         50Hz Content
BDInfo:         0.7.5.9 (compatible layout created by DVDFab 12.0.9.2)

PLAYLIST REPORT:

Name:                   00000.MPLS  
Length:                 1:31:38.534 (h:m:s.ms)
Size:                   32,359,102,464 bytes
Total Bitrate:          47.08 Mbps

VIDEO:

Codec                   Bitrate             Description   
-----                   -------             -----------   
MPEG-4 AVC Video        37938 kbps          1080p / 23.976 fps / 16:9 / High Profile 4.1

AUDIO:

Codec                           Language        Bitrate         Description   
-----                           --------        -------         -----------   
LPCM Audio                      English         2304 kbps       2.0 / 48 kHz / 2304 kbps / 24-bit
LPCM Audio                      French          2304 kbps       2.0 / 48 kHz / 2304 kbps / 24-bit
LPCM Audio                      German          2304 kbps       2.0 / 48 kHz / 2304 kbps / 24-bit

SUBTITLES:

Codec                           Language        Bitrate         Description   
-----                           --------        -------         -----------   
Presentation Graphics           English         16.277 kbps                    
Presentation Graphics           French          10.553 kbps                    
Presentation Graphics           German          14.994 kbps        

Video
ID : 1
ID in the original source medium : 4113 (0x1011)
Format : AVC
Format/Info : Advanced Video Codec
Format profile : [email protected]
Format settings : CABAC / 4 Ref Frames
Format settings, CABAC : Yes
Format settings, Reference frames : 4 frames
Codec ID : V_MPEG4/ISO/AVC
Duration : 1 h 31 min
Bit rate mode : Variable
Bit rate : 37.7 Mb/s
Maximum bit rate : 39.0 Mb/s
Width : 1 920 pixels
Height : 1 080 pixels
Display aspect ratio : 16:9
Frame rate mode : Constant
Frame rate : 23.976 (24000/1001) FPS
Color space : YUV
Chroma subsampling : 4:2:0
Bit depth : 8 bits
Scan type : Progressive
Bits/(Pixel*Frame) : 0.759
Stream size : 24.2 GiB (84%)
Language : English
Default : No
Forced : No
Original source medium : Blu-ray

Audio #1
ID : 2
ID in the original source medium : 4352 (0x1100)
Format : PCM
Format settings : Little / Signed
Codec ID : A_PCM/INT/LIT
Duration : 1 h 31 min
Bit rate mode : Constant
Bit rate : 2 304 kb/s
Channel(s) : 2 channels
Sampling rate : 48.0 kHz
Frame rate : 30.000 FPS (1600 SPF)
Bit depth : 24 bits
Stream size : 1.47 GiB (5%)
Title : LPCM 2.0
Language : English
Default : Yes
Forced : No
Original source medium : Blu-ray

Audio #2
ID : 3
ID in the original source medium : 4353 (0x1101)
Format : PCM
Format settings : Little / Signed
Codec ID : A_PCM/INT/LIT
Duration : 1 h 31 min
Bit rate mode : Constant
Bit rate : 2 304 kb/s
Channel(s) : 2 channels
Sampling rate : 48.0 kHz
Frame rate : 30.000 FPS (1600 SPF)
Bit depth : 24 bits
Stream size : 1.47 GiB (5%)
Title : LPCM 2.0
Language : French
Default : No
Forced : No
Original source medium : Blu-ray

Audio #3
ID : 4
ID in the original source medium : 4354 (0x1102)
Format : PCM
Format settings : Little / Signed
Codec ID : A_PCM/INT/LIT
Duration : 1 h 31 min
Bit rate mode : Constant
Bit rate : 2 304 kb/s
Channel(s) : 2 channels
Sampling rate : 48.0 kHz
Frame rate : 30.000 FPS (1600 SPF)
Bit depth : 24 bits
Stream size : 1.47 GiB (5%)
Title : LPCM 2.0
Language : German
Default : No
Forced : No
Original source medium : Blu-ray

Text #1
ID : 5
Format : UTF-8
Codec ID : S_TEXT/UTF8
Codec ID/Info : UTF-8 Plain Text
Duration : 1 h 26 min
Bit rate : 25 b/s
Frame rate : 0.099 FPS
Count of elements : 517
Stream size : 16.1 KiB (0%)
Language : English
Default : Yes
Forced : No

Text #2
ID : 6
Format : UTF-8
Codec ID : S_TEXT/UTF8
Codec ID/Info : UTF-8 Plain Text
Duration : 1 h 28 min
Bit rate : 26 b/s
Frame rate : 0.110 FPS
Count of elements : 585
Stream size : 17.4 KiB (0%)
Title : SDH
Language : English
Default : No
Forced : No

Text #3
ID : 7
ID in the original source medium : 4608 (0x1200)
Format : PGS
Muxing mode : zlib
Codec ID : S_HDMV/PGS
Codec ID/Info : Picture based subtitle format used on BDs/HD-DVDs
Duration : 1 h 28 min
Bit rate : 16.8 kb/s
Frame rate : 0.221 FPS
Count of elements : 1182
Stream size : 10.7 MiB (0%)
Language : English
Default : No
Forced : No
Original source medium : Blu-ray

Text #4
ID : 8
ID in the original source medium : 4609 (0x1201)
Format : PGS
Muxing mode : zlib
Codec ID : S_HDMV/PGS
Codec ID/Info : Picture based subtitle format used on BDs/HD-DVDs
Duration : 1 h 24 min
Bit rate : 11.4 kb/s
Frame rate : 0.194 FPS
Count of elements : 988
Stream size : 6.92 MiB (0%)
Language : French
Default : No
Forced : No
Original source medium : Blu-ray

Text #5
ID : 9
ID in the original source medium : 4610 (0x1202)
Format : PGS
Muxing mode : zlib
Codec ID : S_HDMV/PGS
Codec ID/Info : Picture based subtitle format used on BDs/HD-DVDs
Duration : 1 h 27 min
Bit rate : 15.8 kb/s
Frame rate : 0.176 FPS
Count of elements : 922
Stream size : 9.83 MiB (0%)
Language : German
Default : No
Forced : No
Original source medium : Blu-ray

Menu
00:00:00.000 : en:Chapter 01
00:06:25.718 : en:Chapter 02
00:13:00.654 : en:Chapter 03
00:21:38.046 : en:Chapter 04
00:27:21.598 : en:Chapter 05
00:33:30.049 : en:Chapter 06
00:39:31.994 : en:Chapter 07
00:50:12.092 : en:Chapter 08
01:00:24.245 : en:Chapter 09
01:06:59.348 : en:Chapter 10
01:13:55.764 : en:Chapter 11
01:23:12.320 : en:Chapter 12

本帖子中包含更多资源

您需要 登录 才可以下载或查看,没有帐号?立即注册

x
回复

使用道具 举报

您需要登录后才可以回帖 登录 | 立即注册

本版积分规则

QQ|Archiver|手机版|小黑屋|原盘天堂 好多盘 点击这里给我发消息

GMT+8, 2023-1-29 11:22 , Processed in 0.056343 second(s), 24 queries .

Powered by Discuz! X3.4

Copyright © 2001-2021, Tencent Cloud.

快速回复 返回顶部 返回列表