请选择 进入手机版 | 继续访问电脑版
本站Q群713428235【盘盘多】已满,请新会员加原盘天堂新官方QQ群709708625【好多盘】,验证信息填写您在论坛的会员名,不填会员名的无法入群哈,进群后修改您的群名片名字为您在论坛的会员名,请务必修改,否则群成员多了不知道您是哪个会员。

原盘天堂

 找回密码
 立即注册
京东商城当当华为商城名牌时尚折扣网,一个新型的网上购物平台,我们每周为您精选3~4个国际知名品牌,商品折扣低至2折限时限量售卖,商品囊括时装、护肤品、箱包、皮具、配饰、香水等等,琳琅满目。亿格瑞A10硬盘播放器 苏宁易购
查看: 86|回复: 0

4k蓝光原盘bdmv 恐怖幽灵 英语原版 the.frighteners.1996.dc.2160p.bluray.hevc.truehd.7.1.atmos[90.72 GB]

[复制链接]

7423

主题

8549

帖子

135万

积分

管理员

Rank: 18Rank: 18Rank: 18Rank: 18Rank: 18

积分
1353705
发表于 2022-12-30 08:49:31 | 显示全部楼层 |阅读模式









◎译  名 恐怖幽灵/不可思议的勾魂事件(港)/神通鬼大(台)
◎片  名 The Frighteners
◎年  代 1996
◎产  地 新西兰/美国
◎类  别 喜剧/恐怖/奇幻
◎语  言 英语
◎上映日期 1996-07-19(美国)
◎IMDb评分 7.1/10 from 90255 users
◎IMDb链接 https://www.imdb.com/title/tt0116365/
◎豆瓣评分 7.1/10 from 5977 users
◎豆瓣链接 https://douban.com/subject/1292739/
◎片  长 110分钟
◎导  演 彼得·杰克逊 Peter Jackson
◎编  剧 弗兰·威尔士 Fran Walsh / 彼得·杰克逊 Peter Jackson
◎主  演 迈克尔·J·福克斯 Michael J. Fox
      翠尼·阿瓦拉多 Trini Alvarado
      彼得·道博森 Peter Dobson
      约翰·阿斯廷 John Astin
      杰弗瑞·考姆斯 Jeffrey Combs
      迪·沃伦斯 Dee Wallace
      杰克·布塞 Jake Busey
      齐·麦克布赖德 Chi McBride
      特洛伊·伊万斯 Troy Evans
      朱丽安娜·麦卡蒂 Julianna McCarthy
      李·厄米 R. Lee Ermey
      伊丽莎白·霍桑 Elizabeth Hawthorne
      安吉拉·布鲁姆菲尔德 Angela Bloomfield
      Desmond Kelly Desmond Kelly
      Todd Rippon Todd Rippon
      约翰·萨莫尔 John Sumner
      迈克尔·罗宾森 Michael Robinson
      安东尼雷派克 Anthony Ray Parker
      梅兰妮·林斯基 Melanie Lynskey
      Charlie McClellan Charlie McClellan
      George Port George Port
      Taea Hartwell Taea Hartwell
      马修张伯伦 Matthew Chamberlain
      Michael Elsworth Michael Elsworth
      彼得·杰克逊 Peter Jackson
      格兰特·梅杰 Grant Major

◎简  介

  
  一场严重的车祸夺去黛布拉(Angela Bloomfield 饰)的生命,而身负重伤的建筑师弗兰克(Michael J. Fox 饰)也在车祸后获得可与幽灵交流的能力。出院之后,弗兰克辞去工作,以通灵者的身份向镇上居民提供驱魂的服务。
  
  某天,弗兰克所在的小镇接连发生神秘死亡事件,之后他更目睹了一个幽灵杀人的场面。与此同时,警方介入调查,弗兰克则因经常出现在死亡现场而成为重要嫌疑犯。他必须尽快为自己洗脱罪名,找出幽灵杀人背后的秘密……
  
  本片荣获1996年Sitges – Catalonian国际电影节最佳特效奖。


DISC INFO:

Disc Title:     The.Frighteners.1996.DC.COMPLETE.UHD.BLURAY-FULLBRUTALiTY
Disc Size:      97,405,123,917 bytes
Protection:     AACS2
Extras:         Ultra HD
BDInfo:         0.7.5.9 (compatible layout created by DVDFab 12.0.9.2)

PLAYLIST REPORT:

Name:                   00002.MPLS  
Length:                 2:02:34.680 (h:m:s.ms)
Size:                   95,158,929,408 bytes
Total Bitrate:          103.51 Mbps

(*) Indicates included stream hidden by this playlist.

VIDEO:

Codec                   Bitrate             Description   
-----                   -------             -----------   
MPEG-H HEVC Video       83724 kbps          2160p / 23.976 fps / 16:9 / Main 10 @ Level 5.1 @ High / 4:2:0 / 10 bits / 1000nits / HDR10 / BT.2020
* MPEG-H HEVC Video     68 kbps (0.08%)     1080p / 23.976 fps / 16:9 / Main 10 @ Level 5.1 @ High / 4:2:0 / 10 bits / 1000nits / Dolby Vision MEL / BT.2020

AUDIO:

Codec                           Language        Bitrate         Description   
-----                           --------        -------         -----------   
Dolby TrueHD/Atmos Audio        German          4549 kbps       7.1+13 objects / 48 kHz / 3909 kbps / 24-bit (AC3 Core: 5.1-EX / 48 kHz / 640 kbps)
Dolby TrueHD/Atmos Audio        English         4682 kbps       7.1+13 objects / 48 kHz / 4042 kbps / 24-bit (AC3 Core: 5.1-EX / 48 kHz / 640 kbps)
DTS-HD Master Audio             English         1872 kbps       5.1 / 48 kHz / 1872 kbps / 16-bit (DTS Core: 5.1 / 48 kHz / 768 kbps / 16-bit)
DTS-HD Master Audio             English         1030 kbps       2.0 / 48 kHz / 1030 kbps / 16-bit (DTS Core: 2.0 / 48 kHz / 768 kbps / 16-bit)
Dolby Digital Audio             English         224 kbps        2.0 / 48 kHz / 224 kbps

SUBTITLES:

Codec                           Language        Bitrate         Description   
-----                           --------        -------         -----------   
Presentation Graphics           German          29.455 kbps                    
Presentation Graphics           German          32.258 kbps                    
Presentation Graphics           English         27.537 kbps                    
Presentation Graphics           English         30.485 kbps                    
Presentation Graphics           German          0.466 kbps                     
Presentation Graphics           German          59.278 kbps                    
Presentation Graphics           English         68.165 kbps   


Video
ID : 1
ID in the original source medium : 4113 (0x1011)
Format : HEVC
Format/Info : High Efficiency Video Coding
Format profile : Main [email protected]@High
HDR format : Dolby Vision, Version 1.0, dvhe.07.06, BL+EL+RPU, Blu-ray compatible / SMPTE ST 2086, HDR10 compatible
Codec ID : V_MPEGH/ISO/HEVC
Duration : 2 h 2 min
Bit rate : 83.8 Mb/s
Width : 3 840 pixels
Height : 2 160 pixels
Display aspect ratio : 16:9
Frame rate mode : Constant
Frame rate : 23.976 (24000/1001) FPS
Color space : YUV
Chroma subsampling : 4:2:0 (Type 2)
Bit depth : 10 bits
Bits/(Pixel*Frame) : 0.421
Stream size : 71.7 GiB (85%)
Language : English
Default : No
Forced : No
Color range : Limited
Color primaries : BT.2020
Transfer characteristics : PQ
Matrix coefficients : BT.2020 non-constant
Mastering display color primaries : BT.2020
Mastering display luminance : min: 0.0001 cd/m2, max: 1000 cd/m2
Maximum Content Light Level : 1000 cd/m2
Maximum Frame-Average Light Level : 400 cd/m2
Original source medium : Blu-ray

Audio #1
ID : 2
ID in the original source medium : 4353 (0x1101)
Format : MLP FBA 16-ch
Format/Info : Meridian Lossless Packing FBA with 16-channel presentation
Commercial name : Dolby TrueHD with Dolby Atmos
Codec ID : A_TRUEHD
Duration : 2 h 2 min
Bit rate mode : Variable
Bit rate : 4 042 kb/s
Maximum bit rate : 6 135 kb/s
Channel(s) : 8 channels
Channel layout : L R C LFE Ls Rs Lb Rb
Sampling rate : 48.0 kHz
Frame rate : 1 200.000 FPS (40 SPF)
Bit depth : 24 bits
Compression mode : Lossless
Stream size : 3.46 GiB (4%)
Title : TrueHD 7.1. Atmos
Language : English
Default : Yes
Forced : No
Original source medium : Blu-ray
Number of dynamic objects : 13
Bed channel count : 1 channel
Bed channel configuration : LFE

Audio #2
ID : 3
Format : DTS XLL
Format/Info : Digital Theater Systems
Commercial name : DTS-HD Master Audio
Codec ID : A_DTS
Duration : 2 h 2 min
Bit rate mode : Variable
Bit rate : 3 886 kb/s
Channel(s) : 8 channels
Channel layout : C L R LFE Lb Rb Lss Rss
Sampling rate : 48.0 kHz
Frame rate : 93.750 FPS (512 SPF)
Bit depth : 24 bits
Compression mode : Lossless
Stream size : 3.33 GiB (4%)
Title : DTS-HD MA 7.1
Language : English
Default : No
Forced : No

Audio #3
ID : 4
ID in the original source medium : 4353 (0x1101)
Format : AC-3
Format/Info : Audio Coding 3
Commercial name : Dolby Digital
Format settings : Dolby Surround EX
Codec ID : A_AC3
Duration : 2 h 2 min
Bit rate mode : Constant
Bit rate : 640 kb/s
Channel(s) : 6 channels
Channel layout : L R C LFE Ls Rs
Sampling rate : 48.0 kHz
Frame rate : 31.250 FPS (1536 SPF)
Compression mode : Lossy
Stream size : 561 MiB (1%)
Title : DD 5.1
Language : English
Service kind : Complete Main
Default : No
Forced : No
Original source medium : Blu-ray

Audio #4
ID : 5
ID in the original source medium : 4352 (0x1100)
Format : MLP FBA 16-ch
Format/Info : Meridian Lossless Packing FBA with 16-channel presentation
Commercial name : Dolby TrueHD with Dolby Atmos
Codec ID : A_TRUEHD
Duration : 2 h 3 min
Bit rate mode : Variable
Bit rate : 3 909 kb/s
Maximum bit rate : 5 934 kb/s
Channel(s) : 8 channels
Channel layout : L R C LFE Ls Rs Lb Rb
Sampling rate : 48.0 kHz
Frame rate : 1 200.000 FPS (40 SPF)
Bit depth : 24 bits
Compression mode : Lossless
Stream size : 3.36 GiB (4%)
Title : TrueHD 7.1. Atmos
Language : German
Default : No
Forced : No
Original source medium : Blu-ray
Number of dynamic objects : 13
Bed channel count : 1 channel
Bed channel configuration : LFE

Audio #5
ID : 6
ID in the original source medium : 4352 (0x1100)
Format : AC-3
Format/Info : Audio Coding 3
Commercial name : Dolby Digital
Format settings : Dolby Surround EX
Codec ID : A_AC3
Duration : 2 h 3 min
Bit rate mode : Constant
Bit rate : 640 kb/s
Channel(s) : 6 channels
Channel layout : L R C LFE Ls Rs
Sampling rate : 48.0 kHz
Frame rate : 31.250 FPS (1536 SPF)
Compression mode : Lossy
Stream size : 563 MiB (1%)
Title : DD 5.1
Language : German
Service kind : Complete Main
Default : No
Forced : No
Original source medium : Blu-ray

Audio #6
ID : 7
ID in the original source medium : 4355 (0x1103)
Format : DTS XLL
Format/Info : Digital Theater Systems
Commercial name : DTS-HD Master Audio
Codec ID : A_DTS
Duration : 2 h 2 min
Bit rate mode : Variable
Bit rate : 1 030 kb/s
Channel(s) : 2 channels
Sampling rate : 48.0 kHz
Frame rate : 93.750 FPS (512 SPF)
Bit depth : 16 bits
Compression mode : Lossless
Stream size : 903 MiB (1%)
Title : DTS-HD MA 2.0
Language : English
Default : No
Forced : No
Original source medium : Blu-ray

Audio #7
ID : 8
ID in the original source medium : 4356 (0x1104)
Format : AC-3
Format/Info : Audio Coding 3
Commercial name : Dolby Digital
Codec ID : A_AC3
Duration : 2 h 2 min
Bit rate mode : Constant
Bit rate : 224 kb/s
Channel(s) : 2 channels
Channel layout : L R
Sampling rate : 48.0 kHz
Frame rate : 31.250 FPS (1536 SPF)
Compression mode : Lossy
Stream size : 196 MiB (0%)
Title : DD 2.0
Language : English
Service kind : Complete Main
Default : No
Forced : No
Original source medium : Blu-ray

Text #1
ID : 9
Format : UTF-8
Codec ID : S_TEXT/UTF8
Codec ID/Info : UTF-8 Plain Text
Duration : 1 h 56 min
Bit rate : 48 b/s
Frame rate : 0.194 FPS
Count of elements : 1356
Stream size : 41.9 KiB (0%)
Language : English
Default : Yes
Forced : No

Text #2
ID : 10
Format : UTF-8
Codec ID : S_TEXT/UTF8
Codec ID/Info : UTF-8 Plain Text
Duration : 1 h 57 min
Bit rate : 51 b/s
Frame rate : 0.219 FPS
Count of elements : 1544
Stream size : 44.6 KiB (0%)
Title : SDH
Language : English
Default : No
Forced : No

Text #3
ID : 11
ID in the original source medium : 4770 (0x12A2)
Format : PGS
Muxing mode : zlib
Codec ID : S_HDMV/PGS
Codec ID/Info : Picture based subtitle format used on BDs/HD-DVDs
Duration : 1 h 56 min
Bit rate : 28.9 kb/s
Frame rate : 0.381 FPS
Count of elements : 2673
Stream size : 24.1 MiB (0%)
Language : English
Default : No
Forced : No
Original source medium : Blu-ray

Text #4
ID : 12
ID in the original source medium : 4771 (0x12A3)
Format : PGS
Muxing mode : zlib
Codec ID : S_HDMV/PGS
Codec ID/Info : Picture based subtitle format used on BDs/HD-DVDs
Duration : 1 h 57 min
Bit rate : 31.7 kb/s
Frame rate : 0.432 FPS
Count of elements : 3052
Stream size : 26.7 MiB (0%)
Language : English
Default : No
Forced : No
Original source medium : Blu-ray

Text #5
ID : 13
ID in the original source medium : 4768 (0x12A0)
Format : PGS
Muxing mode : zlib
Codec ID : S_HDMV/PGS
Codec ID/Info : Picture based subtitle format used on BDs/HD-DVDs
Duration : 1 h 56 min
Bit rate : 30.9 kb/s
Frame rate : 0.369 FPS
Count of elements : 2586
Stream size : 25.8 MiB (0%)
Language : German
Default : No
Forced : No
Original source medium : Blu-ray

Text #6
ID : 14
ID in the original source medium : 4769 (0x12A1)
Format : PGS
Muxing mode : zlib
Codec ID : S_HDMV/PGS
Codec ID/Info : Picture based subtitle format used on BDs/HD-DVDs
Duration : 1 h 57 min
Bit rate : 33.6 kb/s
Frame rate : 0.415 FPS
Count of elements : 2931
Stream size : 28.3 MiB (0%)
Language : German
Default : No
Forced : No
Original source medium : Blu-ray

Text #7
ID : 15
ID in the original source medium : 4772 (0x12A4)
Format : PGS
Muxing mode : zlib
Codec ID : S_HDMV/PGS
Codec ID/Info : Picture based subtitle format used on BDs/HD-DVDs
Duration : 1 h 18 min
Bit rate : 727 b/s
Frame rate : 0.007 FPS
Count of elements : 33
Stream size : 418 KiB (0%)
Title : FORCED
Language : German
Default : No
Forced : No
Original source medium : Blu-ray

Text #8
ID : 16
ID in the original source medium : 4773 (0x12A5)
Format : PGS
Muxing mode : zlib
Codec ID : S_HDMV/PGS
Codec ID/Info : Picture based subtitle format used on BDs/HD-DVDs
Duration : 1 h 59 min
Bit rate : 60.6 kb/s
Frame rate : 0.536 FPS
Count of elements : 3855
Stream size : 52.0 MiB (0%)
Title : COMMENTARY
Language : German
Default : No
Forced : No
Original source medium : Blu-ray

Text #9
ID : 17
ID in the original source medium : 4774 (0x12A6)
Format : PGS
Muxing mode : zlib
Codec ID : S_HDMV/PGS
Codec ID/Info : Picture based subtitle format used on BDs/HD-DVDs
Duration : 1 h 59 min
Bit rate : 69.7 kb/s
Frame rate : 0.603 FPS
Count of elements : 4337
Stream size : 59.8 MiB (0%)
Title : COMMENTARY
Language : English
Default : No
Forced : No
Original source medium : Blu-ray

Menu
00:00:00.000 : en:Chapter 01
00:02:46.374 : en:Chapter 02
00:07:16.644 : en:Chapter 03
00:10:51.859 : en:Chapter 04
00:18:03.373 : en:Chapter 05
00:26:33.758 : en:Chapter 06
00:33:35.596 : en:Chapter 07
00:39:06.552 : en:Chapter 08
00:45:21.635 : en:Chapter 09
00:53:12.814 : en:Chapter 10
00:59:58.886 : en:Chapter 11
01:08:01.994 : en:Chapter 12
01:15:37.157 : en:Chapter 13
01:20:48.301 : en:Chapter 14
01:25:23.493 : en:Chapter 15
01:32:41.847 : en:Chapter 16
01:39:40.724 : en:Chapter 17
01:44:35.519 : en:Chapter 18
01:51:40.151 : en:Chapter 19
01:58:01.532 : en:Chapter 20

本帖子中包含更多资源

您需要 登录 才可以下载或查看,没有帐号?立即注册

x
回复

使用道具 举报

您需要登录后才可以回帖 登录 | 立即注册

本版积分规则

QQ|Archiver|手机版|小黑屋|原盘天堂 好多盘 点击这里给我发消息

GMT+8, 2023-1-29 10:20 , Processed in 0.044228 second(s), 24 queries .

Powered by Discuz! X3.4

Copyright © 2001-2021, Tencent Cloud.

快速回复 返回顶部 返回列表