请选择 进入手机版 | 继续访问电脑版
本站Q群713428235【盘盘多】已满,请新会员加原盘天堂新官方QQ群709708625【好多盘】,验证信息填写您在论坛的会员名,不填会员名的无法入群哈,进群后修改您的群名片名字为您在论坛的会员名,请务必修改,否则群成员多了不知道您是哪个会员。

原盘天堂

 找回密码
 立即注册
京东商城当当华为商城名牌时尚折扣网,一个新型的网上购物平台,我们每周为您精选3~4个国际知名品牌,商品折扣低至2折限时限量售卖,商品囊括时装、护肤品、箱包、皮具、配饰、香水等等,琳琅满目。亿格瑞A10硬盘播放器 苏宁易购
查看: 75|回复: 0

2d蓝光原盘bdmv 警探奈特:侠盗 英语原版 detective.knight.rogue.2022.1080p.bluray.avc.dts-hd.ma.5.1[34.64 GB]

[复制链接]

7423

主题

8549

帖子

135万

积分

管理员

Rank: 18Rank: 18Rank: 18Rank: 18Rank: 18

积分
1353705
发表于 2022-12-28 09:38:15 | 显示全部楼层 |阅读模式








◎译  名 警探奈特:侠盗/警探奈特
◎片  名 Detective Knight: Rogue
◎年  代 2022
◎产  地 美国
◎类  别 动作/惊悚
◎语  言 英语
◎上映日期 2022-10-21(美国)
◎IMDb评分 3.6/10 from 880 users
◎IMDb链接 https://www.imdb.com/title/tt21435436/
◎豆瓣评分 4.2/10 from 211 users
◎豆瓣链接 https://douban.com/subject/36054120/
◎片  长 105分钟
◎导  演 爱德华·德雷克 Edward Drake
◎编  剧 爱德华·德雷克 Edward Drake / 科里·拉奇 Corey Large
◎主  演 布鲁斯·威利斯 Bruce Willis
      洛奇林·莫罗 Lochlyn Munro
      科里·拉奇 Corey Large
      博·米尔乔夫 Beau Mirchoff
      迈克尔·艾克朗德 Michael Eklund
      科迪·基尔斯利 Cody Kearsley
      凯雅·金 Keeya King
      吉米·让-刘易斯 Jimmy Jean-Louis
      特雷弗·格雷茨基 Trevor Gretzky

◎简  介

  
  讲述老警探詹姆斯·奈特(布鲁斯·威利斯 饰)致力于守护洛杉矶的安宁,万圣节前夕,一群蒙面匪徒在城市作恶、重伤奈特的搭档。为了缉凶,奈特一路追缉劫匪到了纽约,在那里,他的往事也将被揭晓,他必须在救赎的同时自我救赎。
  

DISC INFO:

Disc Title:     Detective.Knight.Rogue.2022.1080p.BluRay.AVC.DTS-HD.MA.5.1-FGT
Disc Size:      37,196,720,717 bytes
Protection:     AACS
Extras:         BD-Java
BDInfo:         0.7.5.9 (compatible layout created by DVDFab 12.0.9.2)

PLAYLIST REPORT:

Name:                   00664.MPLS  
Length:                 1:45:05.340 (h:m:s.ms)
Size:                   32,227,921,920 bytes
Total Bitrate:          40.89 Mbps

VIDEO:

Codec                   Bitrate             Description   
-----                   -------             -----------   
MPEG-4 AVC Video        35248 kbps          1080p / 23.976 fps / 16:9 / High Profile 4.1

AUDIO:

Codec                           Language        Bitrate         Description   
-----                           --------        -------         -----------   
DTS-HD Master Audio             English         3564 kbps       5.1 / 48 kHz / 3564 kbps / 24-bit (DTS Core: 5.1 / 48 kHz / 1509 kbps / 24-bit)

SUBTITLES:

Codec                           Language        Bitrate         Description   
-----                           --------        -------         -----------   
Presentation Graphics           English         39.029 kbps                    
Presentation Graphics           Spanish         30.318 kbps   


Video
ID : 1
ID in the original source medium : 4113 (0x1011)
Format : AVC
Format/Info : Advanced Video Codec
Format profile : [email protected]
Format settings : CABAC / 4 Ref Frames
Format settings, CABAC : Yes
Format settings, Reference frames : 4 frames
Codec ID : V_MPEG4/ISO/AVC
Duration : 1 h 45 min
Bit rate mode : Variable
Bit rate : 35.2 Mb/s
Maximum bit rate : 37.0 Mb/s
Width : 1 920 pixels
Height : 1 080 pixels
Display aspect ratio : 16:9
Frame rate mode : Constant
Frame rate : 23.976 (24000/1001) FPS
Color space : YUV
Chroma subsampling : 4:2:0
Bit depth : 8 bits
Scan type : Progressive
Bits/(Pixel*Frame) : 0.708
Stream size : 25.8 GiB (91%)
Language : English
Default : No
Forced : No
Original source medium : Blu-ray

Audio
ID : 2
ID in the original source medium : 4352 (0x1100)
Format : DTS XLL
Format/Info : Digital Theater Systems
Commercial name : DTS-HD Master Audio
Codec ID : A_DTS
Duration : 1 h 45 min
Bit rate mode : Variable
Bit rate : 3 564 kb/s
Channel(s) : 6 channels
Channel layout : C L R Ls Rs LFE
Sampling rate : 48.0 kHz
Frame rate : 93.750 FPS (512 SPF)
Bit depth : 24 bits
Compression mode : Lossless
Stream size : 2.62 GiB (9%)
Title : DTS-HD MA 5.1
Language : English
Default : Yes
Forced : No
Original source medium : Blu-ray

Text #1
ID : 3
Format : UTF-8
Codec ID : S_TEXT/UTF8
Codec ID/Info : UTF-8 Plain Text
Duration : 1 h 38 min
Bit rate : 56 b/s
Frame rate : 0.231 FPS
Count of elements : 1368
Stream size : 41.0 KiB (0%)
Language : English
Default : Yes
Forced : No

Text #2
ID : 4
Format : UTF-8
Codec ID : S_TEXT/UTF8
Codec ID/Info : UTF-8 Plain Text
Duration : 1 h 39 min
Bit rate : 65 b/s
Frame rate : 0.272 FPS
Count of elements : 1620
Stream size : 47.7 KiB (0%)
Title : SDH
Language : English
Default : No
Forced : No

Text #3
ID : 5
ID in the original source medium : 4608 (0x1200)
Format : PGS
Muxing mode : zlib
Codec ID : S_HDMV/PGS
Codec ID/Info : Picture based subtitle format used on BDs/HD-DVDs
Duration : 1 h 39 min
Bit rate : 41.4 kb/s
Frame rate : 0.555 FPS
Count of elements : 3298
Stream size : 29.3 MiB (0%)
Language : English
Default : No
Forced : No
Original source medium : Blu-ray

Text #4
ID : 6
ID in the original source medium : 4609 (0x1201)
Format : PGS
Muxing mode : zlib
Codec ID : S_HDMV/PGS
Codec ID/Info : Picture based subtitle format used on BDs/HD-DVDs
Duration : 1 h 41 min
Bit rate : 31.4 kb/s
Frame rate : 0.435 FPS
Count of elements : 2654
Stream size : 22.8 MiB (0%)
Language : Spanish
Default : No
Forced : No
Original source medium : Blu-ray

Menu
00:00:00.000 : en:Chapter 01
00:06:48.950 : en:Chapter 02
00:13:24.428 : en:Chapter 03
00:19:56.987 : en:Chapter 04
00:23:49.553 : en:Chapter 05
00:32:33.701 : en:Chapter 06
00:36:53.169 : en:Chapter 07
00:44:38.676 : en:Chapter 08
00:50:17.180 : en:Chapter 09
00:54:20.257 : en:Chapter 10
00:58:36.638 : en:Chapter 11
01:05:37.975 : en:Chapter 12
01:15:38.033 : en:Chapter 13
01:20:26.071 : en:Chapter 14
01:30:11.697 : en:Chapter 15
01:38:01.125 : en:Chapter 16

本帖子中包含更多资源

您需要 登录 才可以下载或查看,没有帐号?立即注册

x
回复

使用道具 举报

您需要登录后才可以回帖 登录 | 立即注册

本版积分规则

QQ|Archiver|手机版|小黑屋|原盘天堂 好多盘 点击这里给我发消息

GMT+8, 2023-1-29 11:18 , Processed in 0.042510 second(s), 25 queries .

Powered by Discuz! X3.4

Copyright © 2001-2021, Tencent Cloud.

快速回复 返回顶部 返回列表