请选择 进入手机版 | 继续访问电脑版
本站Q群713428235【盘盘多】已满,请新会员加原盘天堂新官方QQ群709708625【好多盘】,验证信息填写您在论坛的会员名,不填会员名的无法入群哈,进群后修改您的群名片名字为您在论坛的会员名,请务必修改,否则群成员多了不知道您是哪个会员。

原盘天堂

 找回密码
 立即注册
京东商城当当华为商城名牌时尚折扣网,一个新型的网上购物平台,我们每周为您精选3~4个国际知名品牌,商品折扣低至2折限时限量售卖,商品囊括时装、护肤品、箱包、皮具、配饰、香水等等,琳琅满目。亿格瑞A10硬盘播放器 苏宁易购
查看: 59|回复: 0

4k蓝光原盘bdmv 穿靴子的猫 英语原版 puss.in.boots.2011.2160p.bluray.hevc.dts-x.7.1[47.42 GB]

[复制链接]

7423

主题

8549

帖子

135万

积分

管理员

Rank: 18Rank: 18Rank: 18Rank: 18Rank: 18

积分
1353705
发表于 2022-12-28 08:51:47 | 显示全部楼层 |阅读模式








◎译  名 穿靴子的猫/猫剑侠/无敌猫剑侠(港)/鞋猫剑客(台)/靴猫外传
◎片  名 Puss in Boots
◎年  代 2011
◎产  地 美国
◎类  别 喜剧/动画/家庭/奇幻/冒险
◎语  言 英语/西班牙语
◎上映日期 2011-10-28(美国)
◎IMDb评分 6.6/10 from 162275 users
◎IMDb链接 https://www.imdb.com/title/tt0448694/
◎豆瓣评分 7.7/10 from 127722 users
◎豆瓣链接 https://douban.com/subject/2028585/
◎片  长 90 分钟
◎导  演 克里斯·米勒 Chris Miller
◎编  剧 汤姆·惠勒 Tom Wheeler / 布莱恩·林奇 Brian Lynch / 威廉姆·戴维斯 William Davies / 安德鲁·亚当森 Andrew Adamson / 夏尔·佩罗 Charles Perrault / 大卫·H·斯坦伯格 David H. Steinberg / David Steinberg David Steinberg / Brian Lynch Brian Lynch
◎主  演 安东尼奥·班德拉斯 Antonio Banderas
      萨尔玛·海耶克 Salma Hayek
      扎克·加利凡纳基斯 Zach Galifianakis
      比利·鲍伯·松顿 Billy Bob Thornton
      艾米·塞德丽丝 Amy Sedaris
      康斯坦斯·马丽 Constance Marie
      吉尔莫·德尔·托罗 Guillermo del Toro
      迈克·米切尔 Mike Mitchell
      汤姆·惠勒 Tom Wheeler
      康拉德·弗农 Conrad Vernon
      汤姆·麦格拉思 Tom McGrath
      鲍勃·乔尔斯 Bob Joles
      鲍勃·佩尔西凯蒂 Bob Persichetti
      杰西卡·舒尔特 Jessica Schulte
      Sergio Bruna Sergio Bruna
      Jossara Jinaro Jossara Jinaro
      拉拉·吉尔·米勒 Lara Jill Miller
      约书亚·拉什 Joshua Rush
      古明华 Ming-Wah Koo

◎简  介

  
  他是一只穿靴子的猫(安东尼奥·班德拉斯 Antonio Banderas 配音),多年来行侠仗义,行走江湖,剑术高明,胆大卖萌,虽是官兵通缉捉拿的要犯,但从来都无所畏惧,泰然自若。在某个极不友好的小酒馆里,靴猫听说杰克(Billy Bob Thornton 配音)和吉尔 (Amy Sedaris 配音)这对雌雄恶棍拿到了传说中的魔豆,魔豆长出的豆荚直通巨人的宫殿,而那里住着令人垂涎可以下金蛋的鹅。靴猫决定铤而走险劫掠魔豆,却遭到神秘的黑猫阻挠。在黑猫引诱下,他来到一处猫儿聚会的场所,结果意外遇到当年孤儿院的好友矮蛋(Zach Galifianakis 配音),黑猫则是性感的小母猫咪·柔爪(萨尔玛·海耶克 Salma Hayek 配音)。
  
  矮蛋希望和靴猫重组魔豆帮,拿到下蛋的金鹅……
  

◎获奖情况

  第84届奥斯卡金像奖 (2012)
  最佳动画长片(提名) 克里斯·米勒
  
  第69届金球奖 (2012)
  电影类最佳动画长片(提名)
  
  第39届动画安妮奖 (2012)
  最佳动画长片(提名)
  最佳导演(提名) 克里斯·米勒
  最佳配音(提名) 扎克·加利凡纳基斯
  最佳配乐(提名) 亨利·杰克曼
  最佳剪辑(提名)
  最佳分镜(提名)
  最佳动画角色(提名)
  最佳角色设计(提名)
  最佳动画效果(提名)
  
  第17届美国评论家选择电影奖 (2012)
  最佳动画片(提名)
  
  第10届华盛顿影评人协会奖 (2011)
  最佳动画片(提名)
  
  第24届芝加哥影评人协会奖 (2011)
  最佳动画片(提名)
  
  第14届美国青少年选择奖 (2012)
  最佳动作片女演员(提名) 萨尔玛·海耶克
  最佳动画片(提名)

DISC INFO:

Disc Title:     Puss.in.Boots.2011.2160p.BluRay.HEVC.DTS-X.7.1-B0MBARDiERS
Disc Size:      50,918,438,358 bytes
Protection:     AACS2
Extras:         Ultra HD, BD-Java
BDInfo:         0.7.5.9 (compatible layout created by DVDFab 12.0.9.2)

PLAYLIST REPORT:

Name:                   00800.MPLS  
Length:                 1:30:35.429 (h:m:s.ms)
Size:                   36,460,001,280 bytes
Total Bitrate:          53.66 Mbps

VIDEO:

Codec                   Bitrate             Description   
-----                   -------             -----------   
MPEG-H HEVC Video       44925 kbps          2160p / 23.976 fps / 16:9 / Main 10 @ Level 5.1 @ High / 4:2:0 / 10 bits / 1000nits / HDR10 / BT.2020

AUDIO:

Codec                           Language        Bitrate         Description   
-----                           --------        -------         -----------   
DTS:X Master Audio              English         4445 kbps       7.1-X / 48 kHz / 4445 kbps / 24-bit (DTS Core: 5.1 / 48 kHz / 1509 kbps / 24-bit)
DTS Audio                       Spanish         768 kbps        5.1 / 48 kHz / 768 kbps / 24-bit
DTS Audio                       French          768 kbps        5.1 / 48 kHz / 768 kbps / 24-bit

SUBTITLES:

Codec                           Language        Bitrate         Description   
-----                           --------        -------         -----------   
Presentation Graphics           English         40.887 kbps                    
Presentation Graphics           Spanish         26.588 kbps                    
Presentation Graphics           French          28.328 kbps                    
Presentation Graphics           Spanish         0.133 kbps                     
Presentation Graphics           French          0.186 kbps      


Video
ID : 1
ID in the original source medium : 4113 (0x1011)
Format : HEVC
Format/Info : High Efficiency Video Coding
Format profile : Main [email protected]@High
HDR format : SMPTE ST 2086, HDR10 compatible
Codec ID : V_MPEGH/ISO/HEVC
Duration : 1 h 30 min
Bit rate : 44.9 Mb/s
Width : 3 840 pixels
Height : 2 160 pixels
Display aspect ratio : 16:9
Frame rate mode : Constant
Frame rate : 23.976 (24000/1001) FPS
Color space : YUV
Chroma subsampling : 4:2:0 (Type 2)
Bit depth : 10 bits
Bits/(Pixel*Frame) : 0.226
Stream size : 28.4 GiB (87%)
Language : English
Default : No
Forced : No
Color range : Limited
Color primaries : BT.2020
Transfer characteristics : PQ
Matrix coefficients : BT.2020 non-constant
Mastering display color primaries : Display P3
Mastering display luminance : min: 0.0050 cd/m2, max: 1000 cd/m2
Maximum Content Light Level : 1000 cd/m2
Maximum Frame-Average Light Level : 240 cd/m2
Original source medium : Blu-ray

Audio #1
ID : 2
ID in the original source medium : 4352 (0x1100)
Format : DTS XLL X
Format/Info : Digital Theater Systems
Commercial name : DTS-HD Master Audio
Codec ID : A_DTS
Duration : 1 h 30 min
Bit rate mode : Variable
Bit rate : 4 445 kb/s
Channel(s) : 8 channels
Channel(s)_Original : Object Based
ChannelLayout_Original : Object Based
Sampling rate : 48.0 kHz
Frame rate : 93.750 FPS (512 SPF)
Bit depth : 24 bits
Stream size : 2.81 GiB (9%)
Title : DTS-X 7.1
Language : English
Default : Yes
Forced : No
Original source medium : Blu-ray

Audio #2
ID : 3
Format : AC-3
Format/Info : Audio Coding 3
Commercial name : Dolby Digital
Codec ID : A_AC3
Duration : 1 h 30 min
Bit rate mode : Constant
Bit rate : 640 kb/s
Channel(s) : 6 channels
Channel layout : L R C LFE Ls Rs
Sampling rate : 48.0 kHz
Frame rate : 31.250 FPS (1536 SPF)
Compression mode : Lossy
Stream size : 415 MiB (1%)
Title : DD 5.1
Language : English
Service kind : Complete Main
Default : No
Forced : No

Audio #3
ID : 4
ID in the original source medium : 4353 (0x1101)
Format : DTS
Format/Info : Digital Theater Systems
Codec ID : A_DTS
Duration : 1 h 30 min
Bit rate mode : Constant
Bit rate : 768 kb/s
Channel(s) : 6 channels
Channel layout : C L R Ls Rs LFE
Sampling rate : 48.0 kHz
Frame rate : 93.750 FPS (512 SPF)
Bit depth : 24 bits
Compression mode : Lossy
Stream size : 498 MiB (1%)
Title : DTS 5.1
Language : Spanish
Default : No
Forced : No
Original source medium : Blu-ray

Audio #4
ID : 5
ID in the original source medium : 4354 (0x1102)
Format : DTS
Format/Info : Digital Theater Systems
Codec ID : A_DTS
Duration : 1 h 30 min
Bit rate mode : Constant
Bit rate : 768 kb/s
Channel(s) : 6 channels
Channel layout : C L R Ls Rs LFE
Sampling rate : 48.0 kHz
Frame rate : 93.750 FPS (512 SPF)
Bit depth : 24 bits
Compression mode : Lossy
Stream size : 498 MiB (1%)
Title : DTS 5.1
Language : French
Default : No
Forced : No
Original source medium : Blu-ray

Text #1
ID : 6
Format : UTF-8
Codec ID : S_TEXT/UTF8
Codec ID/Info : UTF-8 Plain Text
Duration : 1 h 21 min
Bit rate : 47 b/s
Frame rate : 0.213 FPS
Count of elements : 1046
Stream size : 28.3 KiB (0%)
Language : English
Default : Yes
Forced : No

Text #2
ID : 7
Format : UTF-8
Codec ID : S_TEXT/UTF8
Codec ID/Info : UTF-8 Plain Text
Duration : 1 h 22 min
Bit rate : 62 b/s
Frame rate : 0.294 FPS
Count of elements : 1448
Stream size : 37.7 KiB (0%)
Title : SDH
Language : English
Default : No
Forced : No

Text #3
ID : 8
ID in the original source medium : 4768 (0x12A0)
Format : PGS
Muxing mode : zlib
Codec ID : S_HDMV/PGS
Codec ID/Info : Picture based subtitle format used on BDs/HD-DVDs
Duration : 1 h 22 min
Bit rate : 45.0 kb/s
Frame rate : 0.596 FPS
Count of elements : 2941
Stream size : 26.5 MiB (0%)
Language : English
Default : No
Forced : No
Original source medium : Blu-ray

Text #4
ID : 9
ID in the original source medium : 4769 (0x12A1)
Format : PGS
Muxing mode : zlib
Codec ID : S_HDMV/PGS
Codec ID/Info : Picture based subtitle format used on BDs/HD-DVDs
Duration : 1 h 29 min
Bit rate : 26.9 kb/s
Frame rate : 0.319 FPS
Count of elements : 1712
Stream size : 17.2 MiB (0%)
Language : Spanish
Default : No
Forced : No
Original source medium : Blu-ray

Text #5
ID : 10
ID in the original source medium : 4770 (0x12A2)
Format : PGS
Muxing mode : zlib
Codec ID : S_HDMV/PGS
Codec ID/Info : Picture based subtitle format used on BDs/HD-DVDs
Duration : 1 h 29 min
Bit rate : 28.7 kb/s
Frame rate : 0.354 FPS
Count of elements : 1902
Stream size : 18.4 MiB (0%)
Language : French
Default : No
Forced : No
Original source medium : Blu-ray

Text #6
ID : 11
ID in the original source medium : 4771 (0x12A3)
Format : PGS
Muxing mode : zlib
Codec ID : S_HDMV/PGS
Codec ID/Info : Picture based subtitle format used on BDs/HD-DVDs
Duration : 1 h 27 min
Bit rate : 138 b/s
Frame rate : 0.002 FPS
Count of elements : 10
Stream size : 88.3 KiB (0%)
Title : FORCED
Language : Spanish
Default : No
Forced : No
Original source medium : Blu-ray

Text #7
ID : 12
ID in the original source medium : 4772 (0x12A4)
Format : PGS
Muxing mode : zlib
Codec ID : S_HDMV/PGS
Codec ID/Info : Picture based subtitle format used on BDs/HD-DVDs
Duration : 1 h 27 min
Bit rate : 193 b/s
Frame rate : 0.003 FPS
Count of elements : 18
Stream size : 123 KiB (0%)
Title : FORCED
Language : French
Default : No
Forced : No
Original source medium : Blu-ray

Menu
00:00:00.000 : en:Chapter 01
00:03:49.020 : en:Chapter 02
00:07:44.172 : en:Chapter 03
00:12:10.855 : en:Chapter 04
00:16:17.393 : en:Chapter 05
00:19:47.561 : en:Chapter 06
00:26:22.372 : en:Chapter 07
00:29:46.451 : en:Chapter 08
00:34:30.485 : en:Chapter 09
00:39:41.962 : en:Chapter 10
00:44:36.382 : en:Chapter 11
00:49:58.078 : en:Chapter 12
00:54:29.641 : en:Chapter 13
00:58:03.146 : en:Chapter 14
01:03:30.014 : en:Chapter 15
01:08:39.031 : en:Chapter 16
01:17:15.547 : en:Chapter 17
01:20:06.176 : en:Chapter 18

本帖子中包含更多资源

您需要 登录 才可以下载或查看,没有帐号?立即注册

x
回复

使用道具 举报

您需要登录后才可以回帖 登录 | 立即注册

本版积分规则

QQ|Archiver|手机版|小黑屋|原盘天堂 好多盘 点击这里给我发消息

GMT+8, 2023-1-29 09:53 , Processed in 0.041447 second(s), 24 queries .

Powered by Discuz! X3.4

Copyright © 2001-2021, Tencent Cloud.

快速回复 返回顶部 返回列表