请选择 进入手机版 | 继续访问电脑版
本站Q群713428235【盘盘多】已满,请新会员加原盘天堂新官方QQ群709708625【好多盘】,验证信息填写您在论坛的会员名,不填会员名的无法入群哈,进群后修改您的群名片名字为您在论坛的会员名,请务必修改,否则群成员多了不知道您是哪个会员。

原盘天堂

 找回密码
 立即注册
京东商城当当华为商城名牌时尚折扣网,一个新型的网上购物平台,我们每周为您精选3~4个国际知名品牌,商品折扣低至2折限时限量售卖,商品囊括时装、护肤品、箱包、皮具、配饰、香水等等,琳琅满目。亿格瑞A10硬盘播放器 苏宁易购
查看: 83|回复: 0

4k蓝光原盘bdmv 孤儿怨:首杀 英语原版 orphan.first.kill.2022.2160p.bluray.hevc.dts-hd.ma.5.1[68.3 GB]

[复制链接]

7423

主题

8549

帖子

135万

积分

管理员

Rank: 18Rank: 18Rank: 18Rank: 18Rank: 18

积分
1353705
发表于 2022-12-28 08:36:52 | 显示全部楼层 |阅读模式








◎译  名 孤儿怨:首杀/孤儿怨:第一次杀戮/孤儿怨2:最黑暗的过去(台)/孤儿怨前传/孤疑前传(港)/伊斯特/Esther
◎片  名 Orphan: First Kill
◎年  代 2022
◎产  地 美国
◎类  别 悬疑/惊悚/恐怖/犯罪
◎语  言 英语/爱沙尼亚语
◎上映日期 2022-07-27(菲律宾)/2022-08-19(美国)
◎IMDb评分 5.9/10 from 31433 users
◎IMDb链接 https://www.imdb.com/title/tt11851548/
◎豆瓣评分 5.5/10 from 23193 users
◎豆瓣链接 https://douban.com/subject/34970503/
◎片  长 99分钟
◎导  演 威廉·布伦特·贝尔 William Brent Bell
◎编  剧 戴维·科格索尔 David Coggeshall / 艾利克斯·马斯 Alex Mace / 大卫·莱斯利·约翰逊-麦戈德里克 David Leslie Johnson-McGoldrick
◎主  演 伊莎贝拉·弗尔曼 Isabelle Fuhrman
      朱丽娅·斯蒂尔斯 Julia Stiles
      罗西弗·萨瑟兰 Rossif Sutherland
      金川弘敦 Hiro Kanagawa
      马修·芬兰 Matthew Finlan
      萨曼莎·沃克斯 Samantha Walkes
      大卫·劳伦斯·布朗 David Lawrence Brown
      劳伦·科克伦 Lauren Cochrane
      格温多琳·柯林斯 Gwendolyn Collins
      克里斯汀·萨瓦茨基 Kristen Sawatzky
      杰夫·斯特罗姆 Jeff Strome
      安德里亚·德尔·坎普 Andrea del Campo
      亚历克·卡洛斯 Alec Carlos
      艾丽西亚·约翰斯顿 Alicia Johnston
      利亚姆·斯图尔特-卡尼根 Liam Stewart-Kanigan
      杰德·迈克尔 Jade Michael
      布拉德利·索茨基 Bradley Sawatzky
      斯蒂芬妮·西 Stephanie Sy
      玛丽娜·斯蒂芬森·科尔 Marina Stephenson Kerr
      沙龙·巴杰 Sharon Bajer
      埃里克·阿塔瓦尔 Erik Athavale

◎简  介

  
  故事发生在上一作之前,伊斯特(伊莎贝拉·弗尔曼 Isabelle Fuhrman 饰)冒名顶替了一个在幼时失踪的女孩的身份,来到了翠西亚(朱丽娅·斯蒂尔斯 Julia Stiles 饰)和艾伦(罗西弗·萨瑟兰 Rossif Sutherland 饰)夫妻两人的家中,面对失而复得的女儿,艾伦显得非常的激动,而伊斯特所展现出的在艺术上的天赋让这对“父女”之间很快就建立起了亲密无间的关系。
  
  谁知道伊斯特的一举一动都被翠西亚看在眼里,随着时间的推移,她逐渐开始怀疑,眼前的女孩,和他们失踪的女儿并非同一人。刚开始,伊斯特只是准备将这个富有的家庭洗劫一空之后一走了之,可对于艾伦的眷恋令她留了下来,可这个决定也令她的真实身份被翠西亚知晓了。


DISC INFO:

Disc Title:     Orphan.First.Kill.2022.2160p.BluRay.HEVC.DTS-HD.MA.5.1-GUHZER
Disc Size:      73,331,268,845 bytes
Protection:     AACS2
Extras:         Ultra HD
BDInfo:         0.7.5.9 (compatible layout created by DVDFab 12.0.9.2)

PLAYLIST REPORT:

Name:                   00000.MPLS  
Length:                 1:38:17.016 (h:m:s.ms)
Size:                   71,271,481,344 bytes
Total Bitrate:          96.69 Mbps

VIDEO:

Codec                   Bitrate             Description   
-----                   -------             -----------   
MPEG-H HEVC Video       88739 kbps          2160p / 23.976 fps / 16:9 / Main 10 @ Level 5.1 @ High / 4:2:0 / 10 bits / 1000nits / HDR10 / BT.2020

AUDIO:

Codec                           Language        Bitrate         Description   
-----                           --------        -------         -----------   
DTS-HD Master Audio             English         1816 kbps       5.1 / 48 kHz / 1816 kbps / 16-bit (DTS Core: 5.1 / 48 kHz / 1509 kbps / 16-bit)
LPCM Audio                      English         1536 kbps       2.0 / 48 kHz / 1536 kbps / 16-bit

SUBTITLES:

Codec                           Language        Bitrate         Description   
-----                           --------        -------         -----------   
Presentation Graphics           English         28.29 kbps     


Video
ID : 1
ID in the original source medium : 4113 (0x1011)
Format : HEVC
Format/Info : High Efficiency Video Coding
Format profile : Main [email protected]@High
HDR format : SMPTE ST 2086, HDR10 compatible
Codec ID : V_MPEGH/ISO/HEVC
Duration : 1 h 38 min
Bit rate : 86.3 Mb/s
Width : 3 840 pixels
Height : 2 160 pixels
Display aspect ratio : 16:9
Frame rate mode : Constant
Frame rate : 23.976 (24000/1001) FPS
Color space : YUV
Chroma subsampling : 4:2:0 (Type 2)
Bit depth : 10 bits
Bits/(Pixel*Frame) : 0.434
Stream size : 59.2 GiB (96%)
Writing library : ATEME Titan File 3.9.11 (4.9.11.0)
Language : English
Default : No
Forced : No
Color range : Limited
Color primaries : BT.2020
Transfer characteristics : PQ
Matrix coefficients : BT.2020 non-constant
Mastering display color primaries : Display P3
Mastering display luminance : min: 0.0050 cd/m2, max: 1000 cd/m2
Maximum Content Light Level : 154 cd/m2
Maximum Frame-Average Light Level : 62 cd/m2
Original source medium : Blu-ray

Audio #1
ID : 2
ID in the original source medium : 4352 (0x1100)
Format : DTS XLL
Format/Info : Digital Theater Systems
Commercial name : DTS-HD Master Audio
Codec ID : A_DTS
Duration : 1 h 38 min
Bit rate mode : Variable
Bit rate : 1 816 kb/s
Channel(s) : 6 channels
Channel layout : C L R Ls Rs LFE
Sampling rate : 48.0 kHz
Frame rate : 93.750 FPS (512 SPF)
Bit depth : 16 bits
Compression mode : Lossless
Stream size : 1.25 GiB (2%)
Title : DTS-HD MA 5.1
Language : English
Default : Yes
Forced : No
Original source medium : Blu-ray

Audio #2
ID : 3
Format : AC-3
Format/Info : Audio Coding 3
Commercial name : Dolby Digital
Codec ID : A_AC3
Duration : 1 h 38 min
Bit rate mode : Constant
Bit rate : 640 kb/s
Channel(s) : 6 channels
Channel layout : L R C LFE Ls Rs
Sampling rate : 48.0 kHz
Frame rate : 31.250 FPS (1536 SPF)
Compression mode : Lossy
Stream size : 450 MiB (1%)
Title : DD 5.1
Language : English
Service kind : Complete Main
Default : No
Forced : No

Audio #3
ID : 4
ID in the original source medium : 4353 (0x1101)
Format : PCM
Format settings : Little / Signed
Codec ID : A_PCM/INT/LIT
Duration : 1 h 38 min
Bit rate mode : Constant
Bit rate : 1 536 kb/s
Channel(s) : 2 channels
Sampling rate : 48.0 kHz
Frame rate : 30.000 FPS (1600 SPF)
Bit depth : 16 bits
Stream size : 1.05 GiB (2%)
Title : LPCM 2.0
Language : English
Default : No
Forced : No
Original source medium : Blu-ray

Text #1
ID : 5
Format : UTF-8
Codec ID : S_TEXT/UTF8
Codec ID/Info : UTF-8 Plain Text
Duration : 1 h 29 min
Bit rate : 46 b/s
Frame rate : 0.197 FPS
Count of elements : 1059
Stream size : 30.5 KiB (0%)
Language : English
Default : Yes
Forced : No

Text #2
ID : 6
Format : UTF-8
Codec ID : S_TEXT/UTF8
Codec ID/Info : UTF-8 Plain Text
Duration : 1 h 30 min
Bit rate : 51 b/s
Frame rate : 0.232 FPS
Count of elements : 1264
Stream size : 34.2 KiB (0%)
Title : SDH
Language : English
Default : No
Forced : No

Text #3
ID : 7
ID in the original source medium : 4768 (0x12A0)
Format : PGS
Muxing mode : zlib
Codec ID : S_HDMV/PGS
Codec ID/Info : Picture based subtitle format used on BDs/HD-DVDs
Duration : 1 h 33 min
Bit rate : 29.7 kb/s
Frame rate : 0.382 FPS
Count of elements : 2148
Stream size : 19.9 MiB (0%)
Language : English
Default : No
Forced : No
Original source medium : Blu-ray

Menu
00:00:00.000 : en:Chapter 01
00:15:15.748 : en:Chapter 02
00:43:20.139 : en:Chapter 03
01:00:07.061 : en:Chapter 04
01:15:39.993 : en:Chapter 05
01:31:54.008 : en:Chapter 06

本帖子中包含更多资源

您需要 登录 才可以下载或查看,没有帐号?立即注册

x
回复

使用道具 举报

您需要登录后才可以回帖 登录 | 立即注册

本版积分规则

QQ|Archiver|手机版|小黑屋|原盘天堂 好多盘 点击这里给我发消息

GMT+8, 2023-1-29 11:00 , Processed in 0.042563 second(s), 25 queries .

Powered by Discuz! X3.4

Copyright © 2001-2021, Tencent Cloud.

快速回复 返回顶部 返回列表