请选择 进入手机版 | 继续访问电脑版
本站Q群713428235【盘盘多】已满,请新会员加原盘天堂新官方QQ群709708625【好多盘】,验证信息填写您在论坛的会员名,不填会员名的无法入群哈,进群后修改您的群名片名字为您在论坛的会员名,请务必修改,否则群成员多了不知道您是哪个会员。

原盘天堂

 找回密码
 立即注册
京东商城当当华为商城名牌时尚折扣网,一个新型的网上购物平台,我们每周为您精选3~4个国际知名品牌,商品折扣低至2折限时限量售卖,商品囊括时装、护肤品、箱包、皮具、配饰、香水等等,琳琅满目。亿格瑞A10硬盘播放器 苏宁易购
查看: 53|回复: 0

4k蓝光原盘bdmv 怪物史瑞克2 英语原版 shrek.2.2004.2160p.bluray.hevc.dts-x.7.1[59.84 GB]

[复制链接]

7423

主题

8549

帖子

135万

积分

管理员

Rank: 18Rank: 18Rank: 18Rank: 18Rank: 18

积分
1353705
发表于 2022-12-28 07:35:28 | 显示全部楼层 |阅读模式








◎译  名 怪物史瑞克2/怪物史莱克2/史力加2(港)/史瑞克2(台)
◎片  名 Shrek 2
◎年  代 2004
◎产  地 美国
◎类  别 喜剧/动画/家庭/奇幻/冒险
◎语  言 英语
◎上映日期 2004-05-19(美国)/2004-08-13(中国大陆)
◎IMDb评分 7.3/10 from 465839 users
◎IMDb链接 https://www.imdb.com/title/tt0298148/
◎豆瓣评分 7.6/10 from 102811 users
◎豆瓣链接 https://douban.com/subject/1291582/
◎片  长 93分钟
◎导  演 凯利·阿斯博瑞 Kelly Asbury / 康拉德·弗农 Conrad Vernon / 安德鲁·亚当森 Andrew Adamson
◎编  剧 安德鲁·亚当森 Andrew Adamson / 乔·斯蒂尔曼 Joe Stillman / J·大卫·斯提姆 J. David Stem / 戴维·N·韦斯 David N. Weiss / 威廉·史塔克 William Steig / 克里斯·米勒 Chris Miller / 安德鲁·布莱克 Andrew Black / 迈克尔·特拉诺尔 Michael Traynor
◎主  演 麦克·梅尔斯 Mike Myers
      艾迪·墨菲 Eddie Murphy
      卡梅隆·迪亚兹 Cameron Diaz
      朱莉·安德鲁斯 Julie Andrews
      安东尼奥·班德拉斯 Antonio Banderas
      约翰·克里斯 John Cleese
      鲁伯特·艾弗雷特 Rupert Everett
      
      琼·里弗斯 Joan Rivers
       Mark Moseley
      克里斯多夫·奈茨 Christopher Knights
      古明华 Ming-Wah Koo
      克劳迪亚·克里斯蒂安 Claudia Christian
      吉约姆·阿瑞托斯 Guillaume Aretos
      安德鲁·亚当森 Andrew Adamson
      藤原纪香 Norika Fujiwara
      拉里·金 Larry King
      梅尔·法尔 Mel Fair
      阿伦·沃纳 Aron Warner
      安德烈·索格利扎索 André Sogliuzzo
      詹姆斯·阿诺德·泰勒 James Arnold Taylor
      瓦内萨·马歇尔 Vanessa Marshall
      Michael Gough Michael Gough
      Holly Fields Holly Fields
      塔拉·斯特朗 Tara Strong
      珍妮弗·桑德斯 Jennifer Saunders
      本诺·菲尔曼 Benno Fürmann

◎简  介

  
  延续了第一部的风格,继续对经典童话进行善意的颠覆。
  
  史莱克和费奥娜公主度完浪漫的蜜月后,回到沼泽地。受费奥娜的父母哈沃尔德国王和莉莲王后的邀请,怪物夫妻带着他们的驴子,浩浩荡荡赶往“遥远国”。
  
  国王和皇后见到分别多日的女儿和乘龙快婿,惊喜变成惊吓,灾难似乎也从此开始。
  
  公主从前的仙女教母,很早前就曾叫自己的儿子“魅力王子”去城堡里屠龙救美,可惜让史莱克抢先了一步,她找到了童话中鼎鼎大名的怪物杀手穿靴子的猫,准备抢回自己心目中的媳妇。
  

◎获奖情况

  第77届奥斯卡金像奖 (2005)
  最佳动画长片(提名) 安德鲁·亚当森
  最佳原创歌曲(提名) 亚当·杜里兹 / 马修·莫利 / 查尔斯·吉灵汉 / 吉姆·博吉奥斯 / 大卫·伊莫格拉克 / 大卫·布莱森 / 丹·维克雷
  
  第57届戛纳电影节 (2004)
  主竞赛单元金棕榈奖(提名) 康拉德·弗农 / 凯利·阿斯博瑞 / 安德鲁·亚当森
  
  第62届金球奖 (2005)
  电影类最佳原创歌曲(提名) 亚当·杜里兹 / 马修·莫利 / 丹·维克雷 / 大卫·伊莫格拉克 / 大卫·布莱森
  
  第32届动画安妮奖 (2005)
  最佳动画长片(提名)
  最佳导演(提名) 安德鲁·亚当森 / 康拉德·弗农 / 凯利·阿斯博瑞
  最佳编剧(提名) J·大卫·斯提姆 / 乔·斯蒂尔曼 / 安德鲁·亚当森 / 戴维·N·韦斯
  最佳配音(提名) 安东尼奥·班德拉斯
  最佳配乐(提名) 哈里·格雷格森-威廉姆斯 / 哈里·格雷格森-威廉姆斯
  最佳分镜(提名) 康拉德·弗农
  最佳动画效果(提名) JonathanGibbs
  
  第14届MTV电影奖 (2005)
  MTV电影奖最佳喜剧表演(提名) 安东尼奥·班德拉斯

DISC INFO:

Disc Title:     Shrek.2.2004.2160p.BluRay.HEVC.DTS-X.7.1-JUNGLiST
Disc Size:      64,239,631,615 bytes
Protection:     AACS2
Extras:         Ultra HD, BD-Java
BDInfo:         0.7.5.9 (compatible layout created by DVDFab 12.0.9.2)

PLAYLIST REPORT:

Name:                   00800.MPLS  
Length:                 1:32:50.564 (h:m:s.ms)
Size:                   57,805,787,136 bytes
Total Bitrate:          83.02 Mbps

VIDEO:

Codec                   Bitrate             Description   
-----                   -------             -----------   
MPEG-H HEVC Video       72162 kbps          2160p / 23.976 fps / 16:9 / Main 10 @ Level 5.1 @ High / 4:2:0 / 10 bits / 1000nits / HDR10 / BT.2020

AUDIO:

Codec                           Language        Bitrate         Description   
-----                           --------        -------         -----------   
DTS:X Master Audio              English         4849 kbps       7.1-X / 48 kHz / 4849 kbps / 24-bit (DTS Core: 5.1 / 48 kHz / 1509 kbps / 24-bit)
DTS Audio                       Spanish         768 kbps        5.1 / 48 kHz / 768 kbps / 24-bit
DTS Audio                       French          768 kbps        5.1 / 48 kHz / 768 kbps / 24-bit
Dolby Digital Audio             English         192 kbps        2.0 / 48 kHz / 192 kbps
Dolby Digital Audio             English         192 kbps        2.0 / 48 kHz / 192 kbps

SUBTITLES:

Codec                           Language        Bitrate         Description   
-----                           --------        -------         -----------   
Presentation Graphics           English         54.555 kbps                    
Presentation Graphics           Spanish         36.343 kbps                    
Presentation Graphics           French          32.975 kbps                    
Presentation Graphics           Spanish         0.439 kbps                     
Presentation Graphics           French          0.397 kbps   


Video
ID : 1
ID in the original source medium : 4113 (0x1011)
Format : HEVC
Format/Info : High Efficiency Video Coding
Format profile : Main [email protected]@High
HDR format : SMPTE ST 2086, HDR10 compatible
Codec ID : V_MPEGH/ISO/HEVC
Duration : 1 h 32 min
Bit rate : 72.2 Mb/s
Width : 3 840 pixels
Height : 2 160 pixels
Display aspect ratio : 16:9
Frame rate mode : Constant
Frame rate : 23.976 (24000/1001) FPS
Color space : YUV
Chroma subsampling : 4:2:0 (Type 2)
Bit depth : 10 bits
Bits/(Pixel*Frame) : 0.363
Stream size : 46.8 GiB (91%)
Language : English
Default : No
Forced : No
Color range : Limited
Color primaries : BT.2020
Transfer characteristics : PQ
Matrix coefficients : BT.2020 non-constant
Mastering display color primaries : Display P3
Mastering display luminance : min: 0.0050 cd/m2, max: 1000 cd/m2
Maximum Content Light Level : 1000 cd/m2
Maximum Frame-Average Light Level : 147 cd/m2
Original source medium : Blu-ray

Audio #1
ID : 2
ID in the original source medium : 4352 (0x1100)
Format : DTS XLL X
Format/Info : Digital Theater Systems
Commercial name : DTS-HD Master Audio
Codec ID : A_DTS
Duration : 1 h 32 min
Bit rate mode : Variable
Bit rate : 4 849 kb/s
Channel(s) : 8 channels
Channel(s)_Original : Object Based
ChannelLayout_Original : Object Based
Sampling rate : 48.0 kHz
Frame rate : 93.750 FPS (512 SPF)
Bit depth : 24 bits
Stream size : 3.14 GiB (6%)
Title : DTS-X 7.1
Language : English
Default : Yes
Forced : No
Original source medium : Blu-ray

Audio #2
ID : 3
Format : AC-3
Format/Info : Audio Coding 3
Commercial name : Dolby Digital
Codec ID : A_AC3
Duration : 1 h 32 min
Bit rate mode : Constant
Bit rate : 640 kb/s
Channel(s) : 6 channels
Channel layout : L R C LFE Ls Rs
Sampling rate : 48.0 kHz
Frame rate : 31.250 FPS (1536 SPF)
Compression mode : Lossy
Stream size : 425 MiB (1%)
Title : DD 5.1
Language : English
Service kind : Complete Main
Default : No
Forced : No

Audio #3
ID : 4
ID in the original source medium : 4353 (0x1101)
Format : DTS
Format/Info : Digital Theater Systems
Codec ID : A_DTS
Duration : 1 h 32 min
Bit rate mode : Constant
Bit rate : 768 kb/s
Channel(s) : 6 channels
Channel layout : C L R Ls Rs LFE
Sampling rate : 48.0 kHz
Frame rate : 93.750 FPS (512 SPF)
Bit depth : 24 bits
Compression mode : Lossy
Stream size : 510 MiB (1%)
Title : DTS 5.1
Language : Spanish
Default : No
Forced : No
Original source medium : Blu-ray

Audio #4
ID : 5
ID in the original source medium : 4354 (0x1102)
Format : DTS
Format/Info : Digital Theater Systems
Codec ID : A_DTS
Duration : 1 h 32 min
Bit rate mode : Constant
Bit rate : 768 kb/s
Channel(s) : 6 channels
Channel layout : C L R Ls Rs LFE
Sampling rate : 48.0 kHz
Frame rate : 93.750 FPS (512 SPF)
Bit depth : 24 bits
Compression mode : Lossy
Stream size : 510 MiB (1%)
Title : DTS 5.1
Language : French
Default : No
Forced : No
Original source medium : Blu-ray

Audio #5
ID : 6
ID in the original source medium : 4355 (0x1103)
Format : AC-3
Format/Info : Audio Coding 3
Commercial name : Dolby Digital
Codec ID : A_AC3
Duration : 1 h 32 min
Bit rate mode : Constant
Bit rate : 192 kb/s
Channel(s) : 2 channels
Channel layout : L R
Sampling rate : 48.0 kHz
Frame rate : 31.250 FPS (1536 SPF)
Compression mode : Lossy
Stream size : 128 MiB (0%)
Title : DD 2.0
Language : English
Service kind : Complete Main
Default : No
Forced : No
Original source medium : Blu-ray

Audio #6
ID : 7
ID in the original source medium : 4356 (0x1104)
Format : AC-3
Format/Info : Audio Coding 3
Commercial name : Dolby Digital
Codec ID : A_AC3
Duration : 1 h 32 min
Bit rate mode : Constant
Bit rate : 192 kb/s
Channel(s) : 2 channels
Channel layout : L R
Sampling rate : 48.0 kHz
Frame rate : 31.250 FPS (1536 SPF)
Compression mode : Lossy
Stream size : 128 MiB (0%)
Title : DD 2.0
Language : English
Service kind : Complete Main
Default : No
Forced : No
Original source medium : Blu-ray

Text #1
ID : 8
Format : UTF-8
Codec ID : S_TEXT/UTF8
Codec ID/Info : UTF-8 Plain Text
Duration : 1 h 31 min
Bit rate : 72 b/s
Frame rate : 0.252 FPS
Count of elements : 1379
Stream size : 48.5 KiB (0%)
Language : English
Default : Yes
Forced : No

Text #2
ID : 9
Format : UTF-8
Codec ID : S_TEXT/UTF8
Codec ID/Info : UTF-8 Plain Text
Duration : 1 h 31 min
Bit rate : 81 b/s
Frame rate : 0.294 FPS
Count of elements : 1613
Stream size : 54.8 KiB (0%)
Title : SDH
Language : English
Default : No
Forced : No

Text #3
ID : 10
ID in the original source medium : 4768 (0x12A0)
Format : PGS
Muxing mode : zlib
Codec ID : S_HDMV/PGS
Codec ID/Info : Picture based subtitle format used on BDs/HD-DVDs
Duration : 1 h 31 min
Bit rate : 55.5 kb/s
Frame rate : 0.593 FPS
Count of elements : 3248
Stream size : 36.2 MiB (0%)
Language : English
Default : No
Forced : No
Original source medium : Blu-ray

Text #4
ID : 11
ID in the original source medium : 4769 (0x12A1)
Format : PGS
Muxing mode : zlib
Codec ID : S_HDMV/PGS
Codec ID/Info : Picture based subtitle format used on BDs/HD-DVDs
Duration : 1 h 31 min
Bit rate : 36.9 kb/s
Frame rate : 0.377 FPS
Count of elements : 2072
Stream size : 24.1 MiB (0%)
Language : Spanish
Default : No
Forced : No
Original source medium : Blu-ray

Text #5
ID : 12
ID in the original source medium : 4770 (0x12A2)
Format : PGS
Muxing mode : zlib
Codec ID : S_HDMV/PGS
Codec ID/Info : Picture based subtitle format used on BDs/HD-DVDs
Duration : 1 h 31 min
Bit rate : 33.5 kb/s
Frame rate : 0.365 FPS
Count of elements : 2004
Stream size : 21.9 MiB (0%)
Language : French
Default : No
Forced : No
Original source medium : Blu-ray

Text #6
ID : 13
ID in the original source medium : 4771 (0x12A3)
Format : PGS
Muxing mode : zlib
Codec ID : S_HDMV/PGS
Codec ID/Info : Picture based subtitle format used on BDs/HD-DVDs
Duration : 1 h 29 min
Bit rate : 455 b/s
Frame rate : 0.006 FPS
Count of elements : 32
Stream size : 299 KiB (0%)
Title : FORCED
Language : Spanish
Default : No
Forced : No
Original source medium : Blu-ray

Text #7
ID : 14
ID in the original source medium : 4772 (0x12A4)
Format : PGS
Muxing mode : zlib
Codec ID : S_HDMV/PGS
Codec ID/Info : Picture based subtitle format used on BDs/HD-DVDs
Duration : 1 h 29 min
Bit rate : 412 b/s
Frame rate : 0.006 FPS
Count of elements : 32
Stream size : 270 KiB (0%)
Title : FORCED
Language : French
Default : No
Forced : No
Original source medium : Blu-ray

Menu
00:00:00.000 : en:Chapter 01
00:02:58.970 : en:Chapter 02
00:09:08.548 : en:Chapter 03
00:11:35.903 : en:Chapter 04
00:19:20.993 : en:Chapter 05
00:27:40.158 : en:Chapter 06
00:30:50.181 : en:Chapter 07
00:33:05.358 : en:Chapter 08
00:41:12.845 : en:Chapter 09
00:48:34.286 : en:Chapter 10
00:52:57.299 : en:Chapter 11
00:56:48.738 : en:Chapter 12
01:01:11.751 : en:Chapter 13
01:04:03.923 : en:Chapter 14
01:05:25.546 : en:Chapter 15
01:07:50.357 : en:Chapter 16
01:11:17.314 : en:Chapter 17
01:14:46.940 : en:Chapter 18
01:19:08.493 : en:Chapter 19
01:22:35.408 : en:Chapter 20

本帖子中包含更多资源

您需要 登录 才可以下载或查看,没有帐号?立即注册

x
回复

使用道具 举报

您需要登录后才可以回帖 登录 | 立即注册

本版积分规则

QQ|Archiver|手机版|小黑屋|原盘天堂 好多盘 点击这里给我发消息

GMT+8, 2023-1-29 11:02 , Processed in 0.042828 second(s), 24 queries .

Powered by Discuz! X3.4

Copyright © 2001-2021, Tencent Cloud.

快速回复 返回顶部 返回列表