请选择 进入手机版 | 继续访问电脑版
本站Q群713428235【盘盘多】已满,请新会员加原盘天堂新官方QQ群709708625【好多盘】,验证信息填写您在论坛的会员名,不填会员名的无法入群哈,进群后修改您的群名片名字为您在论坛的会员名,请务必修改,否则群成员多了不知道您是哪个会员。

原盘天堂

 找回密码
 立即注册
京东商城当当华为商城名牌时尚折扣网,一个新型的网上购物平台,我们每周为您精选3~4个国际知名品牌,商品折扣低至2折限时限量售卖,商品囊括时装、护肤品、箱包、皮具、配饰、香水等等,琳琅满目。亿格瑞A10硬盘播放器 苏宁易购
查看: 95|回复: 0

4k蓝光原盘bdmv 亲爱的别担心 中字 dont.worry.darling.2022.2160p.bluray.hevc.truehd.7.1.atmos[56.54 GB]

[复制链接]

7423

主题

8549

帖子

135万

积分

管理员

Rank: 18Rank: 18Rank: 18Rank: 18Rank: 18

积分
1353705
发表于 2022-12-27 10:34:51 | 显示全部楼层 |阅读模式






◎译  名 亲爱的别担心/别担心亲爱的(港/台)
◎片  名 Don't Worry Darling
◎年  代 2022
◎产  地 美国
◎类  别 剧情/悬疑/惊悚
◎语  言 英语
◎上映日期 2022-09-05(威尼斯电影节)/2022-09-23(美国)
◎IMDb评分 6.2/10 from 83778 users
◎IMDb链接 https://www.imdb.com/title/tt10731256/
◎豆瓣评分 6.4/10 from 7574 users
◎豆瓣链接 https://douban.com/subject/34968378/
◎片  长 122分钟
◎导  演 奥利维亚·王尔德 Olivia Wilde
◎编  剧 凯瑟琳·西尔伯曼 Katie Silberman / 凯里·凡·戴克 Carey Van Dyke / 肖恩·范·戴克 Shane Van Dyke
◎主  演 弗洛伦丝·皮尤 Florence Pugh
      哈里·斯泰尔斯 Harry Styles
      克里斯·派恩 Chris Pine
      奥利维亚·王尔德 Olivia Wilde
      琪琪·莱恩 KiKi Layne
      嘉玛·陈 Gemma Chan
      尼克·克罗尔 Nick Kroll
      西德尼·钱德勒 Sydney Chandler
      凯特·贝兰特 Kate Berlant
      阿西夫·阿里 Asif Ali
      道格拉斯·史密斯 Douglas Smith
      蒂莫西·西蒙斯 Timothy Simons
      阿里尔·斯泰切尔 Ari'el Stachel
      史蒂夫·伯格 Steve Berg
      黛西·苏戴奇斯 Daisy Sudeikis
      马塞罗·莱耶斯 Marcello Reyes
      梦露·克莱恩 Monroe Cline
      蒂塔·万·提斯 Dita Von Teese
      泰勒·梅 Taylor May
      莱克茜·休姆 Lexy Hulme
      提娅.利泽伍德 Toiya Leatherwood

◎简  介

  
  这部心理惊悚题材的影片故事设置在1950年代加州沙漠里的一个与世隔绝的乌托邦式群体当中,讲述一位家庭主妇(Pugh饰)意外地发现了看似平静的生活中的恐怖秘密。
  

◎获奖情况

  第70届圣塞巴斯蒂安国际电影节 (2022)
  观众选择奖(提名) 奥利维亚·王尔德

DISC INFO:

Disc Title:     Dont.Worry.Darling.2022.COMPLETE.UHD.BLURAY-SURCODE
Disc Size:      60,709,632,413 bytes
Protection:     AACS2
Extras:         Ultra HD, BD-Java
BDInfo:         0.7.5.9 (compatible layout created by DVDFab 12.0.9.2)

PLAYLIST REPORT:

Name:                   00800.MPLS  
Length:                 2:02:42.063 (h:m:s.ms)
Size:                   59,640,637,440 bytes
Total Bitrate:          64.81 Mbps

VIDEO:

Codec                   Bitrate             Description   
-----                   -------             -----------   
MPEG-H HEVC Video       52828 kbps          2160p / 23.976 fps / 16:9 / Main 10 @ Level 5.1 @ High / 4:2:0 / 10 bits / 1000nits / HDR10 / BT.2020

AUDIO:

Codec                           Language        Bitrate         Description   
-----                           --------        -------         -----------   
Dolby TrueHD/Atmos Audio        English         3536 kbps       7.1+11 objects / 48 kHz / 3088 kbps / 16-bit (AC3 Core: 5.1 / 48 kHz / 448 kbps)
Dolby Digital Audio             English         640 kbps        5.1 / 48 kHz / 640 kbps
Dolby Digital Audio             French          640 kbps        5.1 / 48 kHz / 640 kbps
Dolby Digital Audio             German          640 kbps        5.1 / 48 kHz / 640 kbps
Dolby Digital Audio             German          192 kbps        2.0 / 48 kHz / 192 kbps / Dolby Surround
Dolby Digital Audio             Spanish         640 kbps        5.1 / 48 kHz / 640 kbps
Dolby Digital Audio             Czech           640 kbps        5.1 / 48 kHz / 640 kbps
Dolby Digital Audio             Polish          640 kbps        5.1 / 48 kHz / 640 kbps

SUBTITLES:

Codec                           Language        Bitrate         Description   
-----                           --------        -------         -----------   
Presentation Graphics           English         39.152 kbps                    
Presentation Graphics           French          25.743 kbps                    
Presentation Graphics           German          38.604 kbps                    
Presentation Graphics           Dutch           25.241 kbps                    
Presentation Graphics           Chinese         25.674 kbps                    
Presentation Graphics           Chinese         29.859 kbps                    
Presentation Graphics           Chinese         29.5 kbps                     
Presentation Graphics           Korean          23.801 kbps                    
Presentation Graphics           Spanish         29.203 kbps                    
Presentation Graphics           Czech           26.939 kbps                    
Presentation Graphics           Polish          29.335 kbps                    
Presentation Graphics           French          0.637 kbps                     
Presentation Graphics           Spanish         0.566 kbps                     
Presentation Graphics           Czech           0.587 kbps   

       
Video
ID : 1
ID in the original source medium : 4113 (0x1011)
Format : HEVC
Format/Info : High Efficiency Video Coding
Format profile : Main [email protected]@High
HDR format : SMPTE ST 2086, HDR10 compatible
Codec ID : V_MPEGH/ISO/HEVC
Duration : 2 h 2 min
Bit rate : 52.8 Mb/s
Width : 3 840 pixels
Height : 2 160 pixels
Display aspect ratio : 16:9
Frame rate mode : Constant
Frame rate : 23.976 (24000/1001) FPS
Color space : YUV
Chroma subsampling : 4:2:0 (Type 2)
Bit depth : 10 bits
Bits/(Pixel*Frame) : 0.266
Stream size : 45.3 GiB (82%)
Writing library : ATEME Titan File 3.9.6 (4.9.6.2)
Language : English
Default : No
Forced : No
Color range : Limited
Color primaries : BT.2020
Transfer characteristics : PQ
Matrix coefficients : BT.2020 non-constant
Mastering display color primaries : BT.2020
Mastering display luminance : min: 0.0001 cd/m2, max: 1000 cd/m2
Maximum Content Light Level : 277 cd/m2
Maximum Frame-Average Light Level : 101 cd/m2
Original source medium : Blu-ray

Audio #1
ID : 2
ID in the original source medium : 4352 (0x1100)
Format : MLP FBA 16-ch
Format/Info : Meridian Lossless Packing FBA with 16-channel presentation
Commercial name : Dolby TrueHD with Dolby Atmos
Codec ID : A_TRUEHD
Duration : 2 h 2 min
Bit rate mode : Variable
Bit rate : 3 088 kb/s
Maximum bit rate : 4 866 kb/s
Channel(s) : 8 channels
Channel layout : L R C LFE Ls Rs Lb Rb
Sampling rate : 48.0 kHz
Frame rate : 1 200.000 FPS (40 SPF)
Bit depth : 24 bits
Compression mode : Lossless
Stream size : 2.65 GiB (5%)
Title : TrueHD 7.1 Atmos
Language : English
Default : Yes
Forced : No
Original source medium : Blu-ray
Number of dynamic objects : 11
Bed channel count : 1 channel
Bed channel configuration : LFE

Audio #2
ID : 3
Format : DTS XLL
Format/Info : Digital Theater Systems
Commercial name : DTS-HD Master Audio
Codec ID : A_DTS
Duration : 2 h 2 min
Bit rate mode : Variable
Bit rate : 4 061 kb/s
Channel(s) : 8 channels
Channel layout : C L R LFE Lb Rb Lss Rss
Sampling rate : 48.0 kHz
Frame rate : 93.750 FPS (512 SPF)
Bit depth : 24 bits
Compression mode : Lossless
Stream size : 3.48 GiB (6%)
Title : DTS-HD MA 7.1
Language : English
Default : No
Forced : No

Audio #3
ID : 4
ID in the original source medium : 4352 (0x1100)
Format : AC-3
Format/Info : Audio Coding 3
Commercial name : Dolby Digital
Codec ID : A_AC3
Duration : 2 h 2 min
Bit rate mode : Constant
Bit rate : 448 kb/s
Channel(s) : 6 channels
Channel layout : L R C LFE Ls Rs
Sampling rate : 48.0 kHz
Frame rate : 31.250 FPS (1536 SPF)
Compression mode : Lossy
Stream size : 393 MiB (1%)
Title : DD 5.1
Language : English
Service kind : Complete Main
Default : No
Forced : No
Original source medium : Blu-ray

Audio #4
ID : 5
ID in the original source medium : 4353 (0x1101)
Format : AC-3
Format/Info : Audio Coding 3
Commercial name : Dolby Digital
Codec ID : A_AC3
Duration : 2 h 2 min
Bit rate mode : Constant
Bit rate : 640 kb/s
Channel(s) : 6 channels
Channel layout : L R C LFE Ls Rs
Sampling rate : 48.0 kHz
Frame rate : 31.250 FPS (1536 SPF)
Compression mode : Lossy
Stream size : 562 MiB (1%)
Title : DD 5.1
Language : English
Service kind : Complete Main
Default : No
Forced : No
Original source medium : Blu-ray

Audio #5
ID : 6
ID in the original source medium : 4354 (0x1102)
Format : AC-3
Format/Info : Audio Coding 3
Commercial name : Dolby Digital
Codec ID : A_AC3
Duration : 2 h 2 min
Bit rate mode : Constant
Bit rate : 640 kb/s
Channel(s) : 6 channels
Channel layout : L R C LFE Ls Rs
Sampling rate : 48.0 kHz
Frame rate : 31.250 FPS (1536 SPF)
Compression mode : Lossy
Stream size : 562 MiB (1%)
Title : DD 5.1
Language : French
Service kind : Complete Main
Default : No
Forced : No
Original source medium : Blu-ray

Audio #6
ID : 7
ID in the original source medium : 4355 (0x1103)
Format : AC-3
Format/Info : Audio Coding 3
Commercial name : Dolby Digital
Codec ID : A_AC3
Duration : 2 h 2 min
Bit rate mode : Constant
Bit rate : 640 kb/s
Channel(s) : 6 channels
Channel layout : L R C LFE Ls Rs
Sampling rate : 48.0 kHz
Frame rate : 31.250 FPS (1536 SPF)
Compression mode : Lossy
Stream size : 562 MiB (1%)
Title : DD 5.1
Language : German
Service kind : Complete Main
Default : No
Forced : No
Original source medium : Blu-ray

Audio #7
ID : 8
ID in the original source medium : 4356 (0x1104)
Format : AC-3
Format/Info : Audio Coding 3
Commercial name : Dolby Digital
Format settings : Dolby Surround
Codec ID : A_AC3
Duration : 2 h 2 min
Bit rate mode : Constant
Bit rate : 192 kb/s
Channel(s) : 2 channels
Channel layout : L R
Sampling rate : 48.0 kHz
Frame rate : 31.250 FPS (1536 SPF)
Compression mode : Lossy
Stream size : 169 MiB (0%)
Title : Stereo
Language : German
Service kind : Complete Main
Default : No
Forced : No
Original source medium : Blu-ray

Audio #8
ID : 9
ID in the original source medium : 4357 (0x1105)
Format : AC-3
Format/Info : Audio Coding 3
Commercial name : Dolby Digital
Codec ID : A_AC3
Duration : 2 h 2 min
Bit rate mode : Constant
Bit rate : 640 kb/s
Channel(s) : 6 channels
Channel layout : L R C LFE Ls Rs
Sampling rate : 48.0 kHz
Frame rate : 31.250 FPS (1536 SPF)
Compression mode : Lossy
Stream size : 562 MiB (1%)
Title : DD 5.1
Language : Spanish
Service kind : Complete Main
Default : No
Forced : No
Original source medium : Blu-ray

Audio #9
ID : 10
ID in the original source medium : 4358 (0x1106)
Format : AC-3
Format/Info : Audio Coding 3
Commercial name : Dolby Digital
Codec ID : A_AC3
Duration : 2 h 2 min
Bit rate mode : Constant
Bit rate : 640 kb/s
Channel(s) : 6 channels
Channel layout : L R C LFE Ls Rs
Sampling rate : 48.0 kHz
Frame rate : 31.250 FPS (1536 SPF)
Compression mode : Lossy
Stream size : 562 MiB (1%)
Title : DD 5.1
Language : Czech
Service kind : Complete Main
Default : No
Forced : No
Original source medium : Blu-ray

Audio #10
ID : 11
ID in the original source medium : 4359 (0x1107)
Format : AC-3
Format/Info : Audio Coding 3
Commercial name : Dolby Digital
Codec ID : A_AC3
Duration : 2 h 2 min
Bit rate mode : Constant
Bit rate : 640 kb/s
Channel(s) : 6 channels
Channel layout : L R C LFE Ls Rs
Sampling rate : 48.0 kHz
Frame rate : 31.250 FPS (1536 SPF)
Compression mode : Lossy
Stream size : 562 MiB (1%)
Title : DD 5.1
Language : Polish
Service kind : Complete Main
Default : No
Forced : No
Original source medium : Blu-ray

Text #1
ID : 12
Format : UTF-8
Codec ID : S_TEXT/UTF8
Codec ID/Info : UTF-8 Plain Text
Duration : 1 h 54 min
Bit rate : 50 b/s
Frame rate : 0.213 FPS
Count of elements : 1460
Stream size : 42.2 KiB (0%)
Language : English
Default : Yes
Forced : No

Text #2
ID : 13
Format : UTF-8
Codec ID : S_TEXT/UTF8
Codec ID/Info : UTF-8 Plain Text
Duration : 1 h 58 min
Bit rate : 58 b/s
Frame rate : 0.240 FPS
Count of elements : 1708
Stream size : 51.1 KiB (0%)
Title : SDH
Language : English
Default : No
Forced : No

Text #3
ID : 14
ID in the original source medium : 4768 (0x12A0)
Format : PGS
Muxing mode : zlib
Codec ID : S_HDMV/PGS
Codec ID/Info : Picture based subtitle format used on BDs/HD-DVDs
Duration : 1 h 58 min
Bit rate : 40.5 kb/s
Frame rate : 0.506 FPS
Count of elements : 3598
Stream size : 34.4 MiB (0%)
Language : English
Default : No
Forced : No
Original source medium : Blu-ray

Text #4
ID : 15
ID in the original source medium : 4769 (0x12A1)
Format : PGS
Muxing mode : zlib
Codec ID : S_HDMV/PGS
Codec ID/Info : Picture based subtitle format used on BDs/HD-DVDs
Duration : 2 h 2 min
Bit rate : 25.9 kb/s
Frame rate : 0.378 FPS
Count of elements : 2766
Stream size : 22.6 MiB (0%)
Language : French
Default : No
Forced : No
Original source medium : Blu-ray

Text #5
ID : 16
ID in the original source medium : 4770 (0x12A2)
Format : PGS
Muxing mode : zlib
Codec ID : S_HDMV/PGS
Codec ID/Info : Picture based subtitle format used on BDs/HD-DVDs
Duration : 2 h 2 min
Bit rate : 38.7 kb/s
Frame rate : 0.426 FPS
Count of elements : 3130
Stream size : 33.9 MiB (0%)
Language : German
Default : No
Forced : No
Original source medium : Blu-ray

Text #6
ID : 17
ID in the original source medium : 4771 (0x12A3)
Format : PGS
Muxing mode : zlib
Codec ID : S_HDMV/PGS
Codec ID/Info : Picture based subtitle format used on BDs/HD-DVDs
Duration : 2 h 2 min
Bit rate : 25.4 kb/s
Frame rate : 0.276 FPS
Count of elements : 2018
Stream size : 22.2 MiB (0%)
Language : Dutch
Default : No
Forced : No
Original source medium : Blu-ray

Text #7
ID : 18
ID in the original source medium : 4772 (0x12A4)
Format : PGS
Muxing mode : zlib
Codec ID : S_HDMV/PGS
Codec ID/Info : Picture based subtitle format used on BDs/HD-DVDs
Duration : 2 h 2 min
Bit rate : 25.8 kb/s
Frame rate : 0.359 FPS
Count of elements : 2632
Stream size : 22.5 MiB (0%)
Language : Chinese
Default : No
Forced : No
Original source medium : Blu-ray

Text #8
ID : 19
ID in the original source medium : 4773 (0x12A5)
Format : PGS
Muxing mode : zlib
Codec ID : S_HDMV/PGS
Codec ID/Info : Picture based subtitle format used on BDs/HD-DVDs
Duration : 1 h 58 min
Bit rate : 31.0 kb/s
Frame rate : 0.381 FPS
Count of elements : 2700
Stream size : 26.2 MiB (0%)
Language : Chinese
Default : No
Forced : No
Original source medium : Blu-ray

Text #9
ID : 20
ID in the original source medium : 4774 (0x12A6)
Format : PGS
Muxing mode : zlib
Codec ID : S_HDMV/PGS
Codec ID/Info : Picture based subtitle format used on BDs/HD-DVDs
Duration : 2 h 2 min
Bit rate : 29.7 kb/s
Frame rate : 0.369 FPS
Count of elements : 2702
Stream size : 25.9 MiB (0%)
Language : Chinese
Default : No
Forced : No
Original source medium : Blu-ray

Text #10
ID : 21
ID in the original source medium : 4775 (0x12A7)
Format : PGS
Muxing mode : zlib
Codec ID : S_HDMV/PGS
Codec ID/Info : Picture based subtitle format used on BDs/HD-DVDs
Duration : 1 h 58 min
Bit rate : 24.7 kb/s
Frame rate : 0.381 FPS
Count of elements : 2700
Stream size : 20.9 MiB (0%)
Language : Korean
Default : No
Forced : No
Original source medium : Blu-ray

Text #11
ID : 22
ID in the original source medium : 4776 (0x12A8)
Format : PGS
Muxing mode : zlib
Codec ID : S_HDMV/PGS
Codec ID/Info : Picture based subtitle format used on BDs/HD-DVDs
Duration : 2 h 2 min
Bit rate : 29.4 kb/s
Frame rate : 0.365 FPS
Count of elements : 2670
Stream size : 25.6 MiB (0%)
Language : Spanish
Default : No
Forced : No
Original source medium : Blu-ray

Text #12
ID : 23
ID in the original source medium : 4777 (0x12A9)
Format : PGS
Muxing mode : zlib
Codec ID : S_HDMV/PGS
Codec ID/Info : Picture based subtitle format used on BDs/HD-DVDs
Duration : 2 h 2 min
Bit rate : 27.1 kb/s
Frame rate : 0.368 FPS
Count of elements : 2696
Stream size : 23.6 MiB (0%)
Language : Czech
Default : No
Forced : No
Original source medium : Blu-ray

Text #13
ID : 24
ID in the original source medium : 4778 (0x12AA)
Format : PGS
Muxing mode : zlib
Codec ID : S_HDMV/PGS
Codec ID/Info : Picture based subtitle format used on BDs/HD-DVDs
Duration : 2 h 2 min
Bit rate : 29.5 kb/s
Frame rate : 0.370 FPS
Count of elements : 2708
Stream size : 25.7 MiB (0%)
Language : Polish
Default : No
Forced : No
Original source medium : Blu-ray

Text #14
ID : 25
ID in the original source medium : 4779 (0x12AB)
Format : PGS
Muxing mode : zlib
Codec ID : S_HDMV/PGS
Codec ID/Info : Picture based subtitle format used on BDs/HD-DVDs
Duration : 1 h 43 min
Bit rate : 752 b/s
Frame rate : 0.012 FPS
Count of elements : 72
Stream size : 572 KiB (0%)
Language : French
Default : No
Forced : No
Original source medium : Blu-ray

Text #15
ID : 26
ID in the original source medium : 4780 (0x12AC)
Format : PGS
Muxing mode : zlib
Codec ID : S_HDMV/PGS
Codec ID/Info : Picture based subtitle format used on BDs/HD-DVDs
Duration : 1 h 43 min
Bit rate : 669 b/s
Frame rate : 0.011 FPS
Count of elements : 68
Stream size : 509 KiB (0%)
Language : Spanish
Default : No
Forced : No
Original source medium : Blu-ray

Text #16
ID : 27
ID in the original source medium : 4781 (0x12AD)
Format : PGS
Muxing mode : zlib
Codec ID : S_HDMV/PGS
Codec ID/Info : Picture based subtitle format used on BDs/HD-DVDs
Duration : 1 h 22 min
Bit rate : 869 b/s
Frame rate : 0.012 FPS
Count of elements : 60
Stream size : 528 KiB (0%)
Language : Czech
Default : No
Forced : No
Original source medium : Blu-ray

Menu
00:00:00.000 : en:Chapter 01
00:09:55.636 : en:Chapter 02
00:18:01.538 : en:Chapter 03
00:27:59.928 : en:Chapter 04
00:35:26.165 : en:Chapter 05
00:45:20.801 : en:Chapter 06
00:55:13.810 : en:Chapter 07
01:04:20.857 : en:Chapter 08
01:12:40.481 : en:Chapter 09
01:21:08.405 : en:Chapter 10
01:30:43.771 : en:Chapter 11
01:39:06.398 : en:Chapter 12
01:48:34.591 : en:Chapter 13
01:55:43.519 : en:Chapter 14

本帖子中包含更多资源

您需要 登录 才可以下载或查看,没有帐号?立即注册

x
回复

使用道具 举报

您需要登录后才可以回帖 登录 | 立即注册

本版积分规则

QQ|Archiver|手机版|小黑屋|原盘天堂 好多盘 点击这里给我发消息

GMT+8, 2023-1-29 11:06 , Processed in 0.043096 second(s), 25 queries .

Powered by Discuz! X3.4

Copyright © 2001-2021, Tencent Cloud.

快速回复 返回顶部 返回列表