请选择 进入手机版 | 继续访问电脑版
本站Q群713428235【盘盘多】已满,请新会员加原盘天堂新官方QQ群709708625【好多盘】,验证信息填写您在论坛的会员名,不填会员名的无法入群哈,进群后修改您的群名片名字为您在论坛的会员名,请务必修改,否则群成员多了不知道您是哪个会员。

原盘天堂

 找回密码
 立即注册
京东商城当当华为商城名牌时尚折扣网,一个新型的网上购物平台,我们每周为您精选3~4个国际知名品牌,商品折扣低至2折限时限量售卖,商品囊括时装、护肤品、箱包、皮具、配饰、香水等等,琳琅满目。亿格瑞A10硬盘播放器 苏宁易购
查看: 81|回复: 0

2d蓝光原盘bdmv 暗影特工 英语原版 section.8.2022.1080p.bluray.avc.dts-hd.ma.5.1[21.27 GB]

[复制链接]

7423

主题

8549

帖子

135万

积分

管理员

Rank: 18Rank: 18Rank: 18Rank: 18Rank: 18

积分
1353705
发表于 2022-12-26 08:36:49 | 显示全部楼层 |阅读模式








◎译  名 暗影特工/Section 8
◎片  名 Section Eight
◎年  代 2022
◎产  地 美国
◎类  别 动作/犯罪
◎语  言 英语
◎上映日期 2022-09-23(美国)
◎IMDb评分 4.1/10 from 851 users
◎IMDb链接 https://www.imdb.com/title/tt14950412/
◎豆瓣评分 4.5/10 from 478 users
◎豆瓣链接 https://douban.com/subject/35737733/
◎片  长 98分钟
◎导  演 克里斯蒂安·塞斯玛 Christian Sesma
◎编  剧 查德·洛 Chad Law
◎主  演 斯科特·阿金斯 Scott Adkins
      瑞恩·柯万腾 Ryan Kwanten
      杜夫·龙格尔 Dolph Lundgren
      米基·洛克 Mickey Rourke
      德蒙特·莫罗尼 Dermot Mulroney
      罗伯特·拉萨多 Robert LaSardo
      保罗·斯隆 Paul Sloan

◎简  介

  
  一名退役士兵在为遇害的家人复仇后被捕入狱,而在他出狱后得到了秘密政府部门的招募。

DISC INFO:

Disc Title:     Section.8.2022.1080p.BluRay.AVC.DTS-HD.MA.5.1-FGT
Disc Size:      22,837,734,641 bytes
Protection:     AACS
BDInfo:         0.7.5.9 (compatible layout created by DVDFab 12.0.9.1)

PLAYLIST REPORT:

Name:                   00020.MPLS  
Length:                 1:37:55.703 (h:m:s.ms)
Size:                   21,590,489,088 bytes
Total Bitrate:          29.40 Mbps

VIDEO:

Codec                   Bitrate             Description   
-----                   -------             -----------   
MPEG-4 AVC Video        23993 kbps          1080p / 23.976 fps / 16:9 / High Profile 4.1

AUDIO:

Codec                           Language        Bitrate         Description   
-----                           --------        -------         -----------   
DTS-HD Master Audio             English         3813 kbps       5.1 / 48 kHz / 3813 kbps / 24-bit (DTS Core: 5.1 / 48 kHz / 1509 kbps / 24-bit)

SUBTITLES:

Codec                           Language        Bitrate         Description   
-----                           --------        -------         -----------   
Presentation Graphics           English         22.37 kbps                     
Presentation Graphics           French          18.772 kbps                    
Presentation Graphics           Spanish         19.473 kbps  


Video
ID : 1
ID in the original source medium : 4113 (0x1011)
Format : AVC
Format/Info : Advanced Video Codec
Format profile : [email protected]
Format settings : CABAC / 4 Ref Frames
Format settings, CABAC : Yes
Format settings, Reference frames : 4 frames
Codec ID : V_MPEG4/ISO/AVC
Duration : 1 h 37 min
Bit rate mode : Variable
Bit rate : 23.6 Mb/s
Maximum bit rate : 36.0 Mb/s
Width : 1 920 pixels
Height : 1 080 pixels
Display aspect ratio : 16:9
Frame rate mode : Constant
Frame rate : 23.976 (24000/1001) FPS
Color space : YUV
Chroma subsampling : 4:2:0
Bit depth : 8 bits
Scan type : Progressive
Bits/(Pixel*Frame) : 0.474
Stream size : 16.1 GiB (86%)
Language : English
Default : No
Forced : No
Original source medium : Blu-ray

Audio
ID : 2
ID in the original source medium : 4352 (0x1100)
Format : DTS XLL
Format/Info : Digital Theater Systems
Commercial name : DTS-HD Master Audio
Codec ID : A_DTS
Duration : 1 h 37 min
Bit rate mode : Variable
Bit rate : 3 813 kb/s
Channel(s) : 6 channels
Channel layout : C L R Ls Rs LFE
Sampling rate : 48.0 kHz
Frame rate : 93.750 FPS (512 SPF)
Bit depth : 24 bits
Compression mode : Lossless
Stream size : 2.61 GiB (14%)
Title : DTS-HD MA 5.1
Language : English
Default : Yes
Forced : No
Original source medium : Blu-ray

Text #1
ID : 3
Format : UTF-8
Codec ID : S_TEXT/UTF8
Codec ID/Info : UTF-8 Plain Text
Duration : 1 h 34 min
Bit rate : 50 b/s
Frame rate : 0.216 FPS
Count of elements : 1218
Stream size : 34.6 KiB (0%)
Language : English
Default : Yes
Forced : No

Text #2
ID : 4
Format : UTF-8
Codec ID : S_TEXT/UTF8
Codec ID/Info : UTF-8 Plain Text
Duration : 1 h 35 min
Bit rate : 52 b/s
Frame rate : 0.233 FPS
Count of elements : 1337
Stream size : 36.9 KiB (0%)
Title : SDH
Language : English
Default : No
Forced : No

Text #3
ID : 5
ID in the original source medium : 4608 (0x1200)
Format : PGS
Muxing mode : zlib
Codec ID : S_HDMV/PGS
Codec ID/Info : Picture based subtitle format used on BDs/HD-DVDs
Duration : 1 h 35 min
Bit rate : 22.9 kb/s
Frame rate : 0.471 FPS
Count of elements : 2706
Stream size : 15.7 MiB (0%)
Language : English
Default : No
Forced : No
Original source medium : Blu-ray

Text #4
ID : 6
ID in the original source medium : 4609 (0x1201)
Format : PGS
Muxing mode : zlib
Codec ID : S_HDMV/PGS
Codec ID/Info : Picture based subtitle format used on BDs/HD-DVDs
Duration : 1 h 30 min
Bit rate : 20.2 kb/s
Frame rate : 0.416 FPS
Count of elements : 2268
Stream size : 13.1 MiB (0%)
Language : French
Default : No
Forced : No
Original source medium : Blu-ray

Text #5
ID : 7
ID in the original source medium : 4610 (0x1202)
Format : PGS
Muxing mode : zlib
Codec ID : S_HDMV/PGS
Codec ID/Info : Picture based subtitle format used on BDs/HD-DVDs
Duration : 1 h 30 min
Bit rate : 21.0 kb/s
Frame rate : 0.429 FPS
Count of elements : 2338
Stream size : 13.6 MiB (0%)
Language : Spanish
Default : No
Forced : No
Original source medium : Blu-ray

Menu
00:00:00.000 : en:Chapter 01
00:16:02.461 : en:Chapter 02
00:26:28.128 : en:Chapter 03
00:37:03.387 : en:Chapter 04
00:51:06.938 : en:Chapter 05
01:01:35.233 : en:Chapter 06
01:13:56.515 : en:Chapter 07
01:31:39.994 : en:Chapter 08

本帖子中包含更多资源

您需要 登录 才可以下载或查看,没有帐号?立即注册

x
回复

使用道具 举报

您需要登录后才可以回帖 登录 | 立即注册

本版积分规则

QQ|Archiver|手机版|小黑屋|原盘天堂 好多盘 点击这里给我发消息

GMT+8, 2023-1-29 09:50 , Processed in 0.042551 second(s), 25 queries .

Powered by Discuz! X3.4

Copyright © 2001-2021, Tencent Cloud.

快速回复 返回顶部 返回列表