请选择 进入手机版 | 继续访问电脑版
本站Q群713428235【盘盘多】已满,请新会员加原盘天堂新官方QQ群709708625【好多盘】,验证信息填写您在论坛的会员名,不填会员名的无法入群哈,进群后修改您的群名片名字为您在论坛的会员名,请务必修改,否则群成员多了不知道您是哪个会员。

原盘天堂

 找回密码
 立即注册
京东商城当当华为商城名牌时尚折扣网,一个新型的网上购物平台,我们每周为您精选3~4个国际知名品牌,商品折扣低至2折限时限量售卖,商品囊括时装、护肤品、箱包、皮具、配饰、香水等等,琳琅满目。亿格瑞A10硬盘播放器 苏宁易购
查看: 61|回复: 0

4k蓝光原盘bdmv 依然爱丽丝 英语原版 still.alice.2014.2160p.bluray.hevc.dts-hd.ma.5.1[56.32 GB]

[复制链接]

7423

主题

8549

帖子

135万

积分

管理员

Rank: 18Rank: 18Rank: 18Rank: 18Rank: 18

积分
1353705
发表于 2022-12-26 07:09:50 | 显示全部楼层 |阅读模式








◎译  名 依然爱丽丝/还是爱丽丝/我想念我自己(台)/勿忘我/依旧爱丽丝/永远的爱丽丝(港)/Para Sempre Alice
◎片  名 Still Alice
◎年  代 2014
◎产  地 美国/法国
◎类  别 剧情
◎语  言 英语
◎上映日期 2014-09-08(多伦多电影节)/2015-02-20(美国)
◎IMDb评分 7.5/10 from 136550 users
◎IMDb链接 https://www.imdb.com/title/tt3316960/
◎豆瓣评分 8.0/10 from 67627 users
◎豆瓣链接 https://douban.com/subject/25815008/
◎片  长 101分钟
◎导  演 理查德·格雷泽 Richard Glatzer / 沃什·韦斯特摩兰 Wash Westmoreland
◎编  剧 理查德·格雷泽 Richard Glatzer / 沃什·韦斯特摩兰 Wash Westmoreland / 莉萨·吉诺瓦 Lisa Genova
◎主  演 朱丽安·摩尔 Julianne Moore
      凯特·波茨沃斯 Kate Bosworth
      肖恩·麦克雷 Shane McRae
      亨特·帕瑞施 Hunter Parrish
      亚历克·鲍德温 Alec Baldwin
      塞斯·吉列姆 Seth Gilliam
      克里斯汀·斯图尔特 Kristen Stewart
      艾琳·达克 Erin Darke
      丹尼尔·格罗尔 Daniel Gerroll
      奇拉格洛里 Zillah Glory

◎简  介

  
  爱丽丝(朱丽安·摩尔 Julianne Moore 饰)是一位事业有成的大学语言学教授,和丈夫约翰(亚历克·鲍德温 Alec Baldwin 饰)结婚多年,感情一直十分要好,两人生养了三个孩子莉迪亚(克里斯汀·斯图尔特 Kristen Stewart 饰)、斐格利亚(凯 特·波茨沃斯 Kate Bosworth 饰)和汤姆(亨特·帕瑞施 Hunter Parrish 饰),每一个孩子都健康长大。
  
  五十岁那年,爱丽丝遭遇了生命中最大的变故,起初,她只是发现自己的记忆力有些退化,随着时间的推移,这种退化越来越严重,经过医生的诊断,她患上了阿尔兹海默病。丰沛的感情,珍贵的记忆,睿智的思想,爱丽丝渐渐的失去了生命中重要的一切,然而,在家人的陪伴和鼓励下,她并没有失去活下去的希望,勇敢而又坚强的迎接新的一天。
  

◎获奖情况

  第87届奥斯卡金像奖 (2015)
  最佳女主角 朱丽安·摩尔
  
  第72届金球奖 (2015)
  电影类剧情片最佳女主角 朱丽安·摩尔
  
  第21届美国演员工会奖 (2015)
  电影奖最佳女主角 朱丽安·摩尔
  
  第86届美国国家评论协会奖 (2014)
  最佳女主角 朱丽安·摩尔
  十佳独立电影
  
  第30届美国独立精神奖 (2015)
  最佳女主角 朱丽安·摩尔
  
  第24届哥谭独立电影奖 (2014)
  最佳女演员 朱丽安·摩尔
  
  第18届好莱坞电影奖 (2014)
  年度女主角 朱丽安·摩尔
  
  第13届华盛顿影评人协会奖 (2014)
  最佳女主角 朱丽安·摩尔
  
  第40届洛杉矶影评人协会奖 (2014)
  最佳女主角(提名) 朱丽安·摩尔
  
  第27届芝加哥影评人协会奖 (2014)
  最佳女主角 朱丽安·摩尔
  
  第18届美国在线影评人协会奖 (2014)
  最佳女主角(提名) 朱丽安·摩尔
  
  第17届美国青少年选择奖 (2015)
  最佳剧情片女演员(提名) 克里斯汀·斯图尔特

DISC INFO:

Disc Title:     Still.Alice.2014.2160p.BluRay.HEVC.DTS-HD.MA.5.1-MiXER
Disc Size:      60,475,162,714 bytes
Protection:     AACS2
Extras:         Ultra HD, BD-Java
BDInfo:         0.7.5.9 (compatible layout created by DVDFab 12.0.9.1)

PLAYLIST REPORT:

Name:                   00800.MPLS  
Length:                 1:41:16.069 (h:m:s.ms)
Size:                   55,189,143,552 bytes
Total Bitrate:          72.66 Mbps

(*) Indicates included stream hidden by this playlist.

VIDEO:

Codec                   Bitrate             Description   
-----                   -------             -----------   
MPEG-H HEVC Video       59538 kbps          2160p / 23.976 fps / 16:9 / Main 10 @ Level 5.1 @ High / 4:2:0 / 10 bits / 1000nits / HDR10 / BT.2020
* MPEG-H HEVC Video     2105 kbps (3.41%)   1080p / 23.976 fps / 16:9 / Main 10 @ Level 5.1 @ High / 4:2:0 / 10 bits / 1000nits / Dolby Vision FEL / BT.2020

AUDIO:

Codec                           Language        Bitrate         Description   
-----                           --------        -------         -----------   
DTS-HD Master Audio             English         2114 kbps       5.1 / 48 kHz / 2114 kbps / 16-bit (DTS Core: 5.1 / 48 kHz / 1509 kbps / 16-bit)
Dolby Digital Audio             English         640 kbps        5.1 / 48 kHz / 640 kbps
DTS-HD Master Audio             French          2098 kbps       5.1 / 48 kHz / 2098 kbps / 16-bit (DTS Core: 5.1 / 48 kHz / 1509 kbps / 16-bit)
DTS-HD Master Audio             Spanish         2114 kbps       5.1 / 48 kHz / 2114 kbps / 16-bit (DTS Core: 5.1 / 48 kHz / 1509 kbps / 16-bit)

SUBTITLES:

Codec                           Language        Bitrate         Description   
-----                           --------        -------         -----------   
Presentation Graphics           English         39.195 kbps                    
Presentation Graphics           English         35.346 kbps                    
Presentation Graphics           French          29.18 kbps                     
Presentation Graphics           Spanish         35.05 kbps   

Video
ID : 1
ID in the original source medium : 4113 (0x1011)
Format : HEVC
Format/Info : High Efficiency Video Coding
Format profile : Main [email protected]@High
HDR format : Dolby Vision, Version 1.0, dvhe.07.06, BL+EL+RPU, Blu-ray compatible / SMPTE ST 2086, HDR10 compatible
Codec ID : V_MPEGH/ISO/HEVC
Duration : 1 h 41 min
Bit rate : 61.6 Mb/s
Width : 3 840 pixels
Height : 2 160 pixels
Display aspect ratio : 16:9
Frame rate mode : Constant
Frame rate : 23.976 (24000/1001) FPS
Color space : YUV
Chroma subsampling : 4:2:0 (Type 2)
Bit depth : 10 bits
Bits/(Pixel*Frame) : 0.310
Stream size : 43.6 GiB (89%)
Language : English
Default : No
Forced : No
Color range : Limited
Color primaries : BT.2020
Transfer characteristics : PQ
Matrix coefficients : BT.2020 non-constant
Mastering display color primaries : Display P3
Mastering display luminance : min: 0.0001 cd/m2, max: 1000 cd/m2
Maximum Content Light Level : 513 cd/m2
Maximum Frame-Average Light Level : 265 cd/m2
Original source medium : Blu-ray

Audio #1
ID : 2
ID in the original source medium : 4352 (0x1100)
Format : DTS XLL
Format/Info : Digital Theater Systems
Commercial name : DTS-HD Master Audio
Codec ID : A_DTS
Duration : 1 h 41 min
Bit rate mode : Variable
Bit rate : 2 114 kb/s
Channel(s) : 6 channels
Channel layout : C L R Ls Rs LFE
Sampling rate : 48.0 kHz
Frame rate : 93.750 FPS (512 SPF)
Bit depth : 16 bits
Compression mode : Lossless
Stream size : 1.50 GiB (3%)
Title : DTS-HD MA 5.1
Language : English
Default : Yes
Forced : No
Original source medium : Blu-ray

Audio #2
ID : 3
Format : AC-3
Format/Info : Audio Coding 3
Commercial name : Dolby Digital
Codec ID : A_AC3
Duration : 1 h 41 min
Bit rate mode : Constant
Bit rate : 640 kb/s
Channel(s) : 6 channels
Channel layout : L R C LFE Ls Rs
Sampling rate : 48.0 kHz
Frame rate : 31.250 FPS (1536 SPF)
Compression mode : Lossy
Stream size : 464 MiB (1%)
Title : DD 5.1
Language : English
Service kind : Complete Main
Default : No
Forced : No

Audio #3
ID : 4
ID in the original source medium : 4353 (0x1101)
Format : AC-3
Format/Info : Audio Coding 3
Commercial name : Dolby Digital
Codec ID : A_AC3
Duration : 1 h 41 min
Bit rate mode : Constant
Bit rate : 640 kb/s
Channel(s) : 6 channels
Channel layout : L R C LFE Ls Rs
Sampling rate : 48.0 kHz
Frame rate : 31.250 FPS (1536 SPF)
Compression mode : Lossy
Stream size : 464 MiB (1%)
Title : DD 5.1
Language : English
Service kind : Complete Main
Default : No
Forced : No
Original source medium : Blu-ray

Audio #4
ID : 5
ID in the original source medium : 4354 (0x1102)
Format : DTS XLL
Format/Info : Digital Theater Systems
Commercial name : DTS-HD Master Audio
Codec ID : A_DTS
Duration : 1 h 41 min
Bit rate mode : Variable
Bit rate : 2 098 kb/s
Channel(s) : 6 channels
Channel layout : C L R Ls Rs LFE
Sampling rate : 48.0 kHz
Frame rate : 93.750 FPS (512 SPF)
Bit depth : 16 bits
Compression mode : Lossless
Stream size : 1.48 GiB (3%)
Title : DTS-HD MA 5.1
Language : French
Default : No
Forced : No
Original source medium : Blu-ray

Audio #5
ID : 6
ID in the original source medium : 4355 (0x1103)
Format : DTS XLL
Format/Info : Digital Theater Systems
Commercial name : DTS-HD Master Audio
Codec ID : A_DTS
Duration : 1 h 41 min
Bit rate mode : Variable
Bit rate : 2 114 kb/s
Channel(s) : 6 channels
Channel layout : C L R Ls Rs LFE
Sampling rate : 48.0 kHz
Frame rate : 93.750 FPS (512 SPF)
Bit depth : 16 bits
Compression mode : Lossless
Stream size : 1.50 GiB (3%)
Title : DTS-HD MA 5.1
Language : Spanish
Default : No
Forced : No
Original source medium : Blu-ray

Text #1
ID : 7
Format : UTF-8
Codec ID : S_TEXT/UTF8
Codec ID/Info : UTF-8 Plain Text
Duration : 1 h 38 min
Bit rate : 65 b/s
Frame rate : 0.217 FPS
Count of elements : 1283
Stream size : 47.5 KiB (0%)
Language : English
Default : Yes
Forced : No

Text #2
ID : 8
Format : UTF-8
Codec ID : S_TEXT/UTF8
Codec ID/Info : UTF-8 Plain Text
Duration : 1 h 38 min
Bit rate : 69 b/s
Frame rate : 0.232 FPS
Count of elements : 1377
Stream size : 50.3 KiB (0%)
Title : SDH
Language : English
Default : No
Forced : No

Text #3
ID : 9
ID in the original source medium : 4768 (0x12A0)
Format : PGS
Muxing mode : zlib
Codec ID : S_HDMV/PGS
Codec ID/Info : Picture based subtitle format used on BDs/HD-DVDs
Duration : 1 h 38 min
Bit rate : 40.2 kb/s
Frame rate : 0.478 FPS
Count of elements : 2832
Stream size : 28.4 MiB (0%)
Language : English
Default : No
Forced : No
Original source medium : Blu-ray

Text #4
ID : 10
ID in the original source medium : 4769 (0x12A1)
Format : PGS
Muxing mode : zlib
Codec ID : S_HDMV/PGS
Codec ID/Info : Picture based subtitle format used on BDs/HD-DVDs
Duration : 1 h 34 min
Bit rate : 38.1 kb/s
Frame rate : 0.443 FPS
Count of elements : 2500
Stream size : 25.6 MiB (0%)
Language : English
Default : No
Forced : No
Original source medium : Blu-ray

Text #5
ID : 11
ID in the original source medium : 4770 (0x12A2)
Format : PGS
Muxing mode : zlib
Codec ID : S_HDMV/PGS
Codec ID/Info : Picture based subtitle format used on BDs/HD-DVDs
Duration : 1 h 40 min
Bit rate : 29.3 kb/s
Frame rate : 0.423 FPS
Count of elements : 2556
Stream size : 21.1 MiB (0%)
Language : French
Default : No
Forced : No
Original source medium : Blu-ray

Text #6
ID : 12
ID in the original source medium : 4770 (0x12A2)
Format : PGS
Muxing mode : zlib
Codec ID : S_HDMV/PGS
Codec ID/Info : Picture based subtitle format used on BDs/HD-DVDs
Duration : 1 h 38 min
Bit rate : 415 b/s
Frame rate : 0.006 FPS
Count of elements : 38
Stream size : 298 KiB (0%)
Language : French
Default : No
Forced : No
Original source medium : Blu-ray

Text #7
ID : 13
ID in the original source medium : 4771 (0x12A3)
Format : PGS
Muxing mode : zlib
Codec ID : S_HDMV/PGS
Codec ID/Info : Picture based subtitle format used on BDs/HD-DVDs
Duration : 1 h 40 min
Bit rate : 35.2 kb/s
Frame rate : 0.424 FPS
Count of elements : 2562
Stream size : 25.4 MiB (0%)
Language : Spanish
Default : No
Forced : No
Original source medium : Blu-ray

Text #8
ID : 14
ID in the original source medium : 4771 (0x12A3)
Format : PGS
Muxing mode : zlib
Codec ID : S_HDMV/PGS
Codec ID/Info : Picture based subtitle format used on BDs/HD-DVDs
Duration : 1 h 38 min
Bit rate : 220 b/s
Frame rate : 0.003 FPS
Count of elements : 16
Stream size : 158 KiB (0%)
Language : Spanish
Default : No
Forced : No
Original source medium : Blu-ray

Menu
00:00:00.000 : en:Chapter 01
00:04:40.613 : en:Chapter 02
00:11:03.245 : en:Chapter 03
00:15:37.895 : en:Chapter 04
00:21:34.668 : en:Chapter 05
00:28:51.062 : en:Chapter 06
00:36:54.545 : en:Chapter 07
00:43:54.798 : en:Chapter 08
00:49:39.518 : en:Chapter 09
00:58:20.079 : en:Chapter 10
01:05:08.779 : en:Chapter 11
01:11:35.833 : en:Chapter 12
01:16:38.885 : en:Chapter 13
01:20:01.922 : en:Chapter 14
01:27:08.848 : en:Chapter 15
01:30:08.903 : en:Chapter 16

本帖子中包含更多资源

您需要 登录 才可以下载或查看,没有帐号?立即注册

x
回复

使用道具 举报

您需要登录后才可以回帖 登录 | 立即注册

本版积分规则

QQ|Archiver|手机版|小黑屋|原盘天堂 好多盘 点击这里给我发消息

GMT+8, 2023-1-29 09:58 , Processed in 0.042728 second(s), 24 queries .

Powered by Discuz! X3.4

Copyright © 2001-2021, Tencent Cloud.

快速回复 返回顶部 返回列表