请选择 进入手机版 | 继续访问电脑版
本站Q群713428235【盘盘多】已满,请新会员加原盘天堂新官方QQ群709708625【好多盘】,验证信息填写您在论坛的会员名,不填会员名的无法入群哈,进群后修改您的群名片名字为您在论坛的会员名,请务必修改,否则群成员多了不知道您是哪个会员。

原盘天堂

 找回密码
 立即注册
京东商城当当华为商城名牌时尚折扣网,一个新型的网上购物平台,我们每周为您精选3~4个国际知名品牌,商品折扣低至2折限时限量售卖,商品囊括时装、护肤品、箱包、皮具、配饰、香水等等,琳琅满目。亿格瑞A10硬盘播放器 苏宁易购
查看: 56|回复: 0

4k蓝光原盘bdmv 纽约提喻法 英语原版 synecdoche.new.york.2008.2160p.bluray.hevc.dts-hd.ma.5.1[58.89 GB]

[复制链接]

7423

主题

8549

帖子

135万

积分

管理员

Rank: 18Rank: 18Rank: 18Rank: 18Rank: 18

积分
1353705
发表于 2022-12-25 09:36:03 | 显示全部楼层 |阅读模式








◎译  名 纽约提喻法/解构纽约/脑作大业(港)/纽约浮世绘(台)/纽约剧中剧(台)/提喻纽约
◎片  名 Synecdoche, New York
◎年  代 2008
◎产  地 美国
◎类  别 剧情
◎语  言 英语/德语
◎上映日期 2008-05-23(戛纳电影节)/2008-10-24(美国)
◎IMDb评分 7.5/10 from 92736 users
◎IMDb链接 https://www.imdb.com/title/tt0383028/
◎豆瓣评分 8.3/10 from 19138 users
◎豆瓣链接 https://douban.com/subject/2028819/
◎片  长 124分钟
◎导  演 查理·考夫曼 Charlie Kaufman
◎编  剧 查理·考夫曼 Charlie Kaufman
◎主  演 菲利普·塞默·霍夫曼 Philip Seymour Hoffman
      凯瑟琳·基纳 Catherine Keener
      米歇尔·威廉姆斯 Michelle Williams
      萨曼莎·莫顿 Samantha Morton
      霍普·戴维斯 Hope Davis
      詹妮弗·杰森·李 Jennifer Jason Leigh
      艾米丽·沃森 Emily Watson
      黛安·韦斯特 Dianne Wiest
      莎迪·高德斯坦 Sadie Goldstein
      保罗·斯帕克斯 Paul Sparks
      艾瑞卡·菲 Erica Fae
      迪尔德丽·奥康奈尔 Deirdre O'Connell
      丹尼尔·伦敦 Daniel London
      克丽丝滕·布什 Kristen Bush
      迈克尔·麦迪罗斯 Michael Medeiros
      丹·茨斯基 Dan Ziskie

◎简  介

  
  9月,伴随着秋天到来的,似乎还有戏剧导演凯顿(菲利普·塞默·霍夫曼 Philip Seymour Hoffman 饰)的孤独,因一次意外的受伤,凯顿陷入了无休止的诊疗,不停拜访各专业医生;另一方面,创作微缩油画的妻子阿黛尔(凯瑟琳·基纳 Catherine Keener 饰)和他日渐疏远,冷漠尴尬的家庭气氛加深了凯顿的自我怀疑,即便他的剧目获得巨大成功也不能掩盖这一切。凯顿与在剧场工作的女子以及一名女演员保持着暧昧关系,在妻子抛弃他之后,凯顿从这两个女人身上试图找到改善自我精神状态的可能性,然而他还是失败了。凯顿最后决定从戏剧中找到答案,他产生了一个庞杂的创作计划……
  

◎获奖情况

  第61届戛纳电影节 (2008)
  主竞赛单元金棕榈奖(提名) 查理·考夫曼

DISC INFO:

Disc Title:     Synecdoche.New.York.2008.2160p.BluRay.HEVC.DTS-HD.MA.5.1-MiXER
Disc Size:      63,229,233,597 bytes
Protection:     AACS2
Extras:         Ultra HD, BD-Java
BDInfo:         0.7.5.9 (compatible layout created by DVDFab 12.0.9.1)

PLAYLIST REPORT:

Name:                   00800.MPLS  
Length:                 2:03:49.421 (h:m:s.ms)
Size:                   52,507,865,088 bytes
Total Bitrate:          56.54 Mbps

(*) Indicates included stream hidden by this playlist.

VIDEO:

Codec                   Bitrate             Description   
-----                   -------             -----------   
MPEG-H HEVC Video       49557 kbps          2160p / 23.976 fps / 16:9 / Main 10 @ Level 5.1 @ High / 4:2:0 / 10 bits / 1000nits / HDR10 / BT.2020
* MPEG-H HEVC Video     2102 kbps (4.07%)   1080p / 23.976 fps / 16:9 / Main 10 @ Level 5.1 @ High / 4:2:0 / 10 bits / 1000nits / Dolby Vision FEL / BT.2020

AUDIO:

Codec                           Language        Bitrate         Description   
-----                           --------        -------         -----------   
DTS-HD Master Audio             English         2097 kbps       5.1 / 48 kHz / 2097 kbps / 16-bit (DTS Core: 5.1 / 48 kHz / 1509 kbps / 16-bit)

SUBTITLES:

Codec                           Language        Bitrate         Description   
-----                           --------        -------         -----------   
Presentation Graphics           English         38.433 kbps                    
Presentation Graphics           English         33.603 kbps      


Video
ID : 1
ID in the original source medium : 4113 (0x1011)
Format : HEVC
Format/Info : High Efficiency Video Coding
Format profile : Main [email protected]@High
HDR format : Dolby Vision, Version 1.0, dvhe.07.06, BL+EL+RPU, Blu-ray compatible / SMPTE ST 2086, HDR10 compatible
Codec ID : V_MPEGH/ISO/HEVC
Duration : 2 h 3 min
Bit rate : 51.7 Mb/s
Width : 3 840 pixels
Height : 2 160 pixels
Display aspect ratio : 16:9
Frame rate mode : Constant
Frame rate : 23.976 (24000/1001) FPS
Color space : YUV
Chroma subsampling : 4:2:0 (Type 2)
Bit depth : 10 bits
Bits/(Pixel*Frame) : 0.260
Stream size : 44.7 GiB (95%)
Language : English
Default : No
Forced : No
Color range : Limited
Color primaries : BT.2020
Transfer characteristics : PQ
Matrix coefficients : BT.2020 non-constant
Mastering display color primaries : BT.2020
Mastering display luminance : min: 0.0001 cd/m2, max: 1000 cd/m2
Maximum Content Light Level : 818 cd/m2
Maximum Frame-Average Light Level : 90 cd/m2
Original source medium : Blu-ray

Audio #1
ID : 2
ID in the original source medium : 4352 (0x1100)
Format : DTS XLL
Format/Info : Digital Theater Systems
Commercial name : DTS-HD Master Audio
Codec ID : A_DTS
Duration : 2 h 3 min
Bit rate mode : Variable
Bit rate : 2 097 kb/s
Channel(s) : 6 channels
Channel layout : C L R Ls Rs LFE
Sampling rate : 48.0 kHz
Frame rate : 93.750 FPS (512 SPF)
Bit depth : 16 bits
Compression mode : Lossless
Stream size : 1.81 GiB (4%)
Title : DTS-HD MA 5.1
Language : English
Default : Yes
Forced : No
Original source medium : Blu-ray

Audio #2
ID : 3
Format : AC-3
Format/Info : Audio Coding 3
Commercial name : Dolby Digital
Codec ID : A_AC3
Duration : 2 h 3 min
Bit rate mode : Constant
Bit rate : 640 kb/s
Channel(s) : 6 channels
Channel layout : L R C LFE Ls Rs
Sampling rate : 48.0 kHz
Frame rate : 31.250 FPS (1536 SPF)
Compression mode : Lossy
Stream size : 567 MiB (1%)
Title : DD 5.1
Language : English
Service kind : Complete Main
Default : No
Forced : No

Text #1
ID : 4
Format : UTF-8
Codec ID : S_TEXT/UTF8
Codec ID/Info : UTF-8 Plain Text
Duration : 2 h 3 min
Bit rate : 61 b/s
Frame rate : 0.207 FPS
Count of elements : 1537
Stream size : 55.6 KiB (0%)
Language : English
Default : Yes
Forced : No

Text #2
ID : 5
Format : UTF-8
Codec ID : S_TEXT/UTF8
Codec ID/Info : UTF-8 Plain Text
Duration : 2 h 3 min
Bit rate : 66 b/s
Frame rate : 0.224 FPS
Count of elements : 1660
Stream size : 60.2 KiB (0%)
Title : SDH
Language : English
Default : No
Forced : No

Text #3
ID : 6
ID in the original source medium : 4768 (0x12A0)
Format : PGS
Muxing mode : zlib
Codec ID : S_HDMV/PGS
Codec ID/Info : Picture based subtitle format used on BDs/HD-DVDs
Duration : 2 h 3 min
Bit rate : 38.5 kb/s
Frame rate : 0.463 FPS
Count of elements : 3431
Stream size : 34.0 MiB (0%)
Language : English
Default : No
Forced : No
Original source medium : Blu-ray

Text #4
ID : 7
ID in the original source medium : 4769 (0x12A1)
Format : PGS
Muxing mode : zlib
Codec ID : S_HDMV/PGS
Codec ID/Info : Picture based subtitle format used on BDs/HD-DVDs
Duration : 1 h 59 min
Bit rate : 34.8 kb/s
Frame rate : 0.411 FPS
Count of elements : 2947
Stream size : 29.8 MiB (0%)
Language : English
Default : No
Forced : No
Original source medium : Blu-ray

Menu
00:00:00.000 : en:Chapter 01
00:08:00.021 : en:Chapter 02
00:15:33.682 : en:Chapter 03
00:23:04.966 : en:Chapter 04
00:26:45.562 : en:Chapter 05
00:34:29.025 : en:Chapter 06
00:41:30.571 : en:Chapter 07
00:45:21.719 : en:Chapter 08
00:55:36.708 : en:Chapter 09
01:04:24.443 : en:Chapter 10
01:14:58.494 : en:Chapter 11
01:23:33.508 : en:Chapter 12
01:32:27.041 : en:Chapter 13
01:40:52.254 : en:Chapter 14
01:45:22.357 : en:Chapter 15
01:57:00.763 : en:Chapter 16

本帖子中包含更多资源

您需要 登录 才可以下载或查看,没有帐号?立即注册

x
回复

使用道具 举报

您需要登录后才可以回帖 登录 | 立即注册

本版积分规则

QQ|Archiver|手机版|小黑屋|原盘天堂 好多盘 点击这里给我发消息

GMT+8, 2023-1-29 10:49 , Processed in 0.048155 second(s), 24 queries .

Powered by Discuz! X3.4

Copyright © 2001-2021, Tencent Cloud.

快速回复 返回顶部 返回列表