请选择 进入手机版 | 继续访问电脑版
本站Q群713428235【盘盘多】已满,请新会员加原盘天堂新官方QQ群709708625【好多盘】,验证信息填写您在论坛的会员名,不填会员名的无法入群哈,进群后修改您的群名片名字为您在论坛的会员名,请务必修改,否则群成员多了不知道您是哪个会员。

原盘天堂

 找回密码
 立即注册
京东商城当当华为商城名牌时尚折扣网,一个新型的网上购物平台,我们每周为您精选3~4个国际知名品牌,商品折扣低至2折限时限量售卖,商品囊括时装、护肤品、箱包、皮具、配饰、香水等等,琳琅满目。亿格瑞A10硬盘播放器 苏宁易购
查看: 55|回复: 1

4k蓝光原盘bdmv 回归 英语原版 volver.2006.spanish.2160p.bluray.hevc.dts-hd.ma.5.1[58.39 GB]

[复制链接]

7423

主题

8549

帖子

135万

积分

管理员

Rank: 18Rank: 18Rank: 18Rank: 18Rank: 18

积分
1353705
发表于 2022-12-25 09:23:01 | 显示全部楼层 |阅读模式








◎译  名 回归/浮花(港)/玩美女人(台)/To Return
◎片  名 Volver
◎年  代 2006
◎产  地 西班牙
◎类  别 剧情/喜剧/悬疑/犯罪
◎语  言 西班牙语
◎上映日期 2006-03-17(西班牙)
◎IMDb评分 7.6/10 from 102869 users
◎IMDb链接 https://www.imdb.com/title/tt0441909/
◎豆瓣评分 8.2/10 from 45784 users
◎豆瓣链接 https://douban.com/subject/1689787/
◎片  长 121 分钟
◎导  演 佩德罗·阿莫多瓦 Pedro Almodóvar
◎编  剧 佩德罗·阿莫多瓦 Pedro Almodóvar
◎主  演 佩内洛普·克鲁兹 Penélope Cruz
      卡门·毛拉 Carmen Maura
      洛拉·杜埃尼亚斯 Lola Dueñas
      布兰卡·波蒂略 Blanca Portillo
      约阿娜·科沃 Yohana Cobo
      丘斯·兰普雷亚维 Chus Lampreave
      安东尼奥·德·拉·托雷 Antonio de la Torre
      卡洛斯·布兰科 Carlos Blanco
      卡洛斯·加西亚·坎贝罗 Carlos García Cambero
      阿古斯丁·阿莫多瓦 Agustín Almodóvar
      友兰达·拉莫斯 Yolanda Ramos
      佩拉·卡斯特罗 Pilar Castro
      玛利亚·迪亚兹 María Isabel Díaz
      莱昂德洛·里维拉 Leandro Rivera
      内乌丝·桑兹 Neus Sanz
      卡门·马奇 Carmen Machi
       Elvira Cuadrupani

◎简  介

  
  雷蒙黛(佩内洛普•克鲁兹 Penélope Cruz饰)和他的酒鬼丈夫、年轻女儿共住,生活却不像别人平静。 雷蒙黛有个姐姐索尔(劳拉•杜纳丝 Lola Dueñas饰),小时候两人和父母生活贫寒。父母在一场火灾后遇难后,两姊妹就搬到了马德里生活,为着各自生活已经渐渐疏远。然而,一场意外和一个鬼魂,打破了两姐妹平静的生活。
  

◎获奖情况

  第79届奥斯卡金像奖 (2007)
  最佳女主角(提名) 佩内洛普·克鲁兹
  
  第59届戛纳电影节 (2006)
  主竞赛单元金棕榈奖(提名) 佩德罗·阿莫多瓦
  主竞赛单元最佳编剧 佩德罗·阿莫多瓦
  主竞赛单元最佳女演员 丘斯·兰普雷亚维 / 约阿娜·科沃 / 洛拉·杜埃尼亚斯 / 布兰卡·波蒂略 / 佩内洛普·克鲁兹 / 卡门·毛拉
  
  第64届金球奖 (2007)
  电影类剧情片最佳女主角(提名) 佩内洛普·克鲁兹
  电影类最佳外语片(提名)

DISC INFO:

Disc Title:     Volver.2006.SPANISH.2160p.BluRay.HEVC.DTS-HD.MA.5.1-MiXER
Disc Size:      62,697,212,981 bytes
Protection:     AACS2
Extras:         Ultra HD, BD-Java
BDInfo:         0.7.5.9 (compatible layout created by DVDFab 12.0.9.1)

PLAYLIST REPORT:

Name:                   00001.MPLS  
Length:                 2:00:50.242 (h:m:s.ms)
Size:                   55,395,188,736 bytes
Total Bitrate:          61.12 Mbps

(*) Indicates included stream hidden by this playlist.

VIDEO:

Codec                   Bitrate             Description   
-----                   -------             -----------   
MPEG-H HEVC Video       53649 kbps          2160p / 23.976 fps / 16:9 / Main 10 @ Level 5.1 @ High / 4:2:0 / 10 bits / 1000nits / HDR10 / BT.2020
* MPEG-H HEVC Video     2102 kbps (3.77%)   1080p / 23.976 fps / 16:9 / Main 10 @ Level 5.1 @ High / 4:2:0 / 10 bits / 1000nits / Dolby Vision FEL / BT.2020

AUDIO:

Codec                           Language        Bitrate         Description   
-----                           --------        -------         -----------   
DTS-HD Master Audio             Spanish         2144 kbps       5.1 / 48 kHz / 2144 kbps / 16-bit (DTS Core: 5.1 / 48 kHz / 1509 kbps / 16-bit)
Dolby Digital Audio             Spanish         192 kbps        2.0 / 48 kHz / 192 kbps / Dolby Surround

SUBTITLES:

Codec                           Language        Bitrate         Description   
-----                           --------        -------         -----------   
Presentation Graphics           English         33.057 kbps                    
Presentation Graphics           English         30.489 kbps                    
Presentation Graphics           English         59.95 kbps   

Video
ID : 1
ID in the original source medium : 4113 (0x1011)
Format : HEVC
Format/Info : High Efficiency Video Coding
Format profile : Main [email protected]@High
HDR format : Dolby Vision, Version 1.0, dvhe.07.06, BL+EL+RPU, Blu-ray compatible / SMPTE ST 2086, HDR10 compatible
Codec ID : V_MPEGH/ISO/HEVC
Duration : 2 h 0 min
Bit rate : 55.8 Mb/s
Width : 3 840 pixels
Height : 2 160 pixels
Display aspect ratio : 16:9
Frame rate mode : Constant
Frame rate : 23.976 (24000/1001) FPS
Color space : YUV
Chroma subsampling : 4:2:0 (Type 2)
Bit depth : 10 bits
Bits/(Pixel*Frame) : 0.280
Stream size : 47.1 GiB (95%)
Language : English
Default : No
Forced : No
Color range : Limited
Color primaries : BT.2020
Transfer characteristics : PQ
Matrix coefficients : BT.2020 non-constant
Mastering display color primaries : Display P3
Mastering display luminance : min: 0.0001 cd/m2, max: 1000 cd/m2
Maximum Content Light Level : 817 cd/m2
Maximum Frame-Average Light Level : 83 cd/m2
Original source medium : Blu-ray

Audio #1
ID : 2
ID in the original source medium : 4352 (0x1100)
Format : DTS XLL
Format/Info : Digital Theater Systems
Commercial name : DTS-HD Master Audio
Codec ID : A_DTS
Duration : 2 h 0 min
Bit rate mode : Variable
Bit rate : 2 144 kb/s
Channel(s) : 6 channels
Channel layout : C L R Ls Rs LFE
Sampling rate : 48.0 kHz
Frame rate : 93.750 FPS (512 SPF)
Bit depth : 16 bits
Compression mode : Lossless
Stream size : 1.81 GiB (4%)
Title : DTS-HD MA 5.1
Language : Spanish
Default : Yes
Forced : No
Original source medium : Blu-ray

Audio #2
ID : 3
Format : AC-3
Format/Info : Audio Coding 3
Commercial name : Dolby Digital
Codec ID : A_AC3
Duration : 2 h 0 min
Bit rate mode : Constant
Bit rate : 640 kb/s
Channel(s) : 6 channels
Channel layout : L R C LFE Ls Rs
Sampling rate : 48.0 kHz
Frame rate : 31.250 FPS (1536 SPF)
Compression mode : Lossy
Stream size : 553 MiB (1%)
Title : DD 5.1
Language : Spanish
Service kind : Complete Main
Default : No
Forced : No

Audio #3
ID : 4
ID in the original source medium : 4353 (0x1101)
Format : AC-3
Format/Info : Audio Coding 3
Commercial name : Dolby Digital
Format settings : Dolby Surround
Codec ID : A_AC3
Duration : 2 h 0 min
Bit rate mode : Constant
Bit rate : 192 kb/s
Channel(s) : 2 channels
Channel layout : L R
Sampling rate : 48.0 kHz
Frame rate : 31.250 FPS (1536 SPF)
Compression mode : Lossy
Stream size : 166 MiB (0%)
Title : DD 2.0
Language : Spanish
Service kind : Complete Main
Default : No
Forced : No
Original source medium : Blu-ray

Text #1
ID : 5
Format : UTF-8
Codec ID : S_TEXT/UTF8
Codec ID/Info : UTF-8 Plain Text
Duration : 1 h 52 min
Bit rate : 56 b/s
Frame rate : 0.232 FPS
Count of elements : 1564
Stream size : 46.8 KiB (0%)
Language : English
Default : Yes
Forced : No

Text #2
ID : 6
Format : UTF-8
Codec ID : S_TEXT/UTF8
Codec ID/Info : UTF-8 Plain Text
Duration : 1 h 53 min
Bit rate : 59 b/s
Frame rate : 0.245 FPS
Count of elements : 1666
Stream size : 49.6 KiB (0%)
Title : SDH
Language : English
Default : No
Forced : No

Text #3
ID : 7
ID in the original source medium : 4768 (0x12A0)
Format : PGS
Muxing mode : zlib
Codec ID : S_HDMV/PGS
Codec ID/Info : Picture based subtitle format used on BDs/HD-DVDs
Duration : 1 h 53 min
Bit rate : 35.2 kb/s
Frame rate : 0.507 FPS
Count of elements : 3454
Stream size : 28.6 MiB (0%)
Language : English
Default : No
Forced : No
Original source medium : Blu-ray

Text #4
ID : 8
ID in the original source medium : 4769 (0x12A1)
Format : PGS
Muxing mode : zlib
Codec ID : S_HDMV/PGS
Codec ID/Info : Picture based subtitle format used on BDs/HD-DVDs
Duration : 1 h 52 min
Bit rate : 32.8 kb/s
Frame rate : 0.475 FPS
Count of elements : 3200
Stream size : 26.4 MiB (0%)
Language : English
Default : No
Forced : No
Original source medium : Blu-ray

Text #5
ID : 9
ID in the original source medium : 4770 (0x12A2)
Format : PGS
Muxing mode : zlib
Codec ID : S_HDMV/PGS
Codec ID/Info : Picture based subtitle format used on BDs/HD-DVDs
Duration : 1 h 55 min
Bit rate : 62.6 kb/s
Frame rate : 0.601 FPS
Count of elements : 4173
Stream size : 51.8 MiB (0%)
Language : English
Default : No
Forced : No
Original source medium : Blu-ray

Menu
00:00:00.000 : en:Chapter 01
00:07:44.005 : en:Chapter 02
00:12:26.454 : en:Chapter 03
00:22:26.178 : en:Chapter 04
00:26:48.315 : en:Chapter 05
00:34:35.656 : en:Chapter 06
00:40:51.907 : en:Chapter 07
00:49:41.853 : en:Chapter 08
00:59:01.287 : en:Chapter 09
01:08:01.535 : en:Chapter 10
01:15:57.219 : en:Chapter 11
01:24:18.386 : en:Chapter 12
01:30:43.938 : en:Chapter 13
01:38:45.085 : en:Chapter 14
01:44:07.491 : en:Chapter 15
01:49:36.361 : en:Chapter 16

本帖子中包含更多资源

您需要 登录 才可以下载或查看,没有帐号?立即注册

x
回复

使用道具 举报

0

主题

6

帖子

21

积分

新手上路

Rank: 1

积分
21
发表于 昨天 21:08 | 显示全部楼层
好片子 谢谢楼主
回复

使用道具 举报

您需要登录后才可以回帖 登录 | 立即注册

本版积分规则

QQ|Archiver|手机版|小黑屋|原盘天堂 好多盘 点击这里给我发消息

GMT+8, 2023-1-29 09:45 , Processed in 0.043895 second(s), 24 queries .

Powered by Discuz! X3.4

Copyright © 2001-2021, Tencent Cloud.

快速回复 返回顶部 返回列表