请选择 进入手机版 | 继续访问电脑版
本站Q群713428235【盘盘多】已满,请新会员加原盘天堂新官方QQ群709708625【好多盘】,验证信息填写您在论坛的会员名,不填会员名的无法入群哈,进群后修改您的群名片名字为您在论坛的会员名,请务必修改,否则群成员多了不知道您是哪个会员。

原盘天堂

 找回密码
 立即注册
京东商城当当华为商城名牌时尚折扣网,一个新型的网上购物平台,我们每周为您精选3~4个国际知名品牌,商品折扣低至2折限时限量售卖,商品囊括时装、护肤品、箱包、皮具、配饰、香水等等,琳琅满目。亿格瑞A10硬盘播放器 苏宁易购
查看: 53|回复: 0

4k蓝光原盘bdmv 鬼童院 英语原版 the.devils.backbone.2001.spanish.2160p.bluray.hevc.dts-hd.ma.5.1[77.62 GB]

[复制链接]

7423

主题

8549

帖子

135万

积分

管理员

Rank: 18Rank: 18Rank: 18Rank: 18Rank: 18

积分
1353705
发表于 2022-12-25 09:03:58 | 显示全部楼层 |阅读模式








◎译  名 鬼童院/恶魔的脊椎骨/魔童魅影/童院魅影/The Devil's Backbone
◎片  名 El espinazo del diablo
◎年  代 2001
◎产  地 西班牙/墨西哥
◎类  别 悬疑/惊悚/恐怖/奇幻
◎语  言 西班牙语
◎上映日期 2001-04-21
◎IMDb评分 7.4/10 from 67283 users
◎IMDb链接 https://www.imdb.com/title/tt0256009/
◎豆瓣评分 7.2/10 from 7780 users
◎豆瓣链接 https://douban.com/subject/1304044/
◎片  长 106 分钟
◎导  演 吉尔莫·德尔·托罗 Guillermo del Toro
◎编  剧 吉尔莫·德尔·托罗 Guillermo del Toro / 安东尼奥·特拉索拉斯 Antonio Trashorras / 大卫·穆尼奥斯 David Muñoz
◎主  演 费尔南多·提尔弗 Fernando Tielve
      爱德华多·诺列加 Eduardo Noriega
      费德里科·路皮 Federico Luppi
      玛丽萨·帕雷德斯 Marisa Paredes
      因尼哥·加塞斯 Íñigo Garcés
      伊琳娜·维塞多 Irene Visedo
      弗朗西斯科·梅斯特 Francisco Maestre
      Berta Ojea Berta Ojea

◎简  介

  
  1939年,持续三年的西班牙内战接近尾声,右翼法西斯分子风头正劲。左派战争孤儿卡洛斯(费尔南多·缇艾弗 Fernando Tielve 饰),被父亲的战友们送到一个位于荒郊野外的孤儿院。这个孤儿院由严厉的卡门女士(玛丽莎·佩雷德斯 Marisa Paredes 饰)和和蔼的卡萨瑞斯教授(Federico Luppi 饰)共同经营。卡洛斯离开亲人和叔叔们的失落情绪并未持续太久,他很快就融入了这个满是同龄人的大家庭。不过,这个院子中央插着炮弹的地方,也许原本就存在着些许异常。卡洛斯所睡的12号床之前属于一个名叫山迪的孩子,山迪在不久前离奇死去。自从卡洛斯来之后,那个小男孩的鬼魂便不断出现……
  
  本片荣获2002年阿姆斯特丹奇幻电影节评委会银奖;2002年法国Gérardmer电影节国际影评人奖、评委会特别奖和青年评委会奖;2002年青年艺术家奖最佳演员奖(...

DISC INFO:

Disc Title:     The.Devils.Backbone.2001.SPANISH.2160p.BluRay.HEVC.DTS-HD.MA.5.1-MiXER
Disc Size:      83,348,992,970 bytes
Protection:     AACS2
Extras:         Ultra HD, BD-Java
BDInfo:         0.7.5.9 (compatible layout created by DVDFab 12.0.9.1)

PLAYLIST REPORT:

Name:                   00001.MPLS  
Length:                 1:47:46.459 (h:m:s.ms)
Size:                   69,206,845,440 bytes
Total Bitrate:          85.62 Mbps

(*) Indicates included stream hidden by this playlist.

VIDEO:

Codec                   Bitrate             Description   
-----                   -------             -----------   
MPEG-H HEVC Video       76854 kbps          2160p / 23.976 fps / 16:9 / Main 10 @ Level 5.1 @ High / 4:2:0 / 10 bits / 1000nits / HDR10 / BT.2020
* MPEG-H HEVC Video     2101 kbps (2.66%)   1080p / 23.976 fps / 16:9 / Main 10 @ Level 5.1 @ High / 4:2:0 / 10 bits / 1000nits / Dolby Vision MEL / BT.2020

AUDIO:

Codec                           Language        Bitrate         Description   
-----                           --------        -------         -----------   
DTS-HD Master Audio             Spanish         2114 kbps       5.1 / 48 kHz / 2114 kbps / 16-bit (DTS Core: 5.1 / 48 kHz / 1509 kbps / 16-bit)
Dolby Digital Audio             English         192 kbps        2.0 / 48 kHz / 192 kbps / Dolby Surround
Dolby Digital Audio             English         192 kbps        2.0 / 48 kHz / 192 kbps / Dolby Surround

SUBTITLES:

Codec                           Language        Bitrate         Description   
-----                           --------        -------         -----------   
Presentation Graphics           English         17.964 kbps                    
Presentation Graphics           English         14.644 kbps                    
Presentation Graphics           English         58.589 kbps                    
Presentation Graphics           English         65.439 kbps                    
Presentation Graphics           English         17.402 kbps   


Video
ID : 1
ID in the original source medium : 4113 (0x1011)
Format : HEVC
Format/Info : High Efficiency Video Coding
Format profile : Main [email protected]@High
HDR format : Dolby Vision, Version 1.0, dvhe.07.06, BL+EL+RPU, Blu-ray compatible / SMPTE ST 2086, HDR10 compatible
Codec ID : V_MPEGH/ISO/HEVC
Duration : 1 h 47 min
Bit rate : 79.0 Mb/s
Width : 3 840 pixels
Height : 2 160 pixels
Display aspect ratio : 16:9
Frame rate mode : Constant
Frame rate : 23.976 (24000/1001) FPS
Color space : YUV
Chroma subsampling : 4:2:0 (Type 2)
Bit depth : 10 bits
Bits/(Pixel*Frame) : 0.397
Stream size : 59.4 GiB (96%)
Language : English
Default : No
Forced : No
Color range : Limited
Color primaries : BT.2020
Transfer characteristics : PQ
Matrix coefficients : BT.2020 non-constant
Mastering display color primaries : Display P3
Mastering display luminance : min: 0.0001 cd/m2, max: 1000 cd/m2
Maximum Content Light Level : 424 cd/m2
Maximum Frame-Average Light Level : 221 cd/m2
Original source medium : Blu-ray

Audio #1
ID : 2
ID in the original source medium : 4352 (0x1100)
Format : DTS XLL
Format/Info : Digital Theater Systems
Commercial name : DTS-HD Master Audio
Codec ID : A_DTS
Duration : 1 h 47 min
Bit rate mode : Variable
Bit rate : 2 114 kb/s
Channel(s) : 6 channels
Channel layout : C L R Ls Rs LFE
Sampling rate : 48.0 kHz
Frame rate : 93.750 FPS (512 SPF)
Bit depth : 16 bits
Compression mode : Lossless
Stream size : 1.59 GiB (3%)
Title : DTS-HD MA 5.1
Language : Spanish
Default : Yes
Forced : No
Original source medium : Blu-ray

Audio #2
ID : 3
Format : AC-3
Format/Info : Audio Coding 3
Commercial name : Dolby Digital
Codec ID : A_AC3
Duration : 1 h 47 min
Bit rate mode : Constant
Bit rate : 640 kb/s
Channel(s) : 6 channels
Channel layout : L R C LFE Ls Rs
Sampling rate : 48.0 kHz
Frame rate : 31.250 FPS (1536 SPF)
Compression mode : Lossy
Stream size : 493 MiB (1%)
Title : DD 5.1
Language : Spanish
Service kind : Complete Main
Default : No
Forced : No

Audio #3
ID : 4
ID in the original source medium : 4353 (0x1101)
Format : AC-3
Format/Info : Audio Coding 3
Commercial name : Dolby Digital
Format settings : Dolby Surround
Codec ID : A_AC3
Duration : 1 h 47 min
Bit rate mode : Constant
Bit rate : 192 kb/s
Channel(s) : 2 channels
Channel layout : L R
Sampling rate : 48.0 kHz
Frame rate : 31.250 FPS (1536 SPF)
Compression mode : Lossy
Stream size : 148 MiB (0%)
Title : DD 2.0
Language : English
Service kind : Complete Main
Default : No
Forced : No
Original source medium : Blu-ray

Audio #4
ID : 5
ID in the original source medium : 4354 (0x1102)
Format : AC-3
Format/Info : Audio Coding 3
Commercial name : Dolby Digital
Format settings : Dolby Surround
Codec ID : A_AC3
Duration : 1 h 47 min
Bit rate mode : Constant
Bit rate : 192 kb/s
Channel(s) : 2 channels
Channel layout : L R
Sampling rate : 48.0 kHz
Frame rate : 31.250 FPS (1536 SPF)
Compression mode : Lossy
Stream size : 148 MiB (0%)
Title : DD 2.0
Language : English
Service kind : Complete Main
Default : No
Forced : No
Original source medium : Blu-ray

Text #1
ID : 6
Format : UTF-8
Codec ID : S_TEXT/UTF8
Codec ID/Info : UTF-8 Plain Text
Duration : 1 h 43 min
Bit rate : 26 b/s
Frame rate : 0.122 FPS
Count of elements : 753
Stream size : 20.1 KiB (0%)
Language : English
Default : Yes
Forced : No

Text #2
ID : 7
Format : UTF-8
Codec ID : S_TEXT/UTF8
Codec ID/Info : UTF-8 Plain Text
Duration : 1 h 43 min
Bit rate : 31 b/s
Frame rate : 0.147 FPS
Count of elements : 911
Stream size : 23.6 KiB (0%)
Title : SDH
Language : English
Default : No
Forced : No

Text #3
ID : 8
ID in the original source medium : 4768 (0x12A0)
Format : PGS
Muxing mode : zlib
Codec ID : S_HDMV/PGS
Codec ID/Info : Picture based subtitle format used on BDs/HD-DVDs
Duration : 1 h 43 min
Bit rate : 18.7 kb/s
Frame rate : 0.305 FPS
Count of elements : 1894
Stream size : 13.8 MiB (0%)
Language : English
Default : No
Forced : No
Original source medium : Blu-ray

Text #4
ID : 9
ID in the original source medium : 4769 (0x12A1)
Format : PGS
Muxing mode : zlib
Codec ID : S_HDMV/PGS
Codec ID/Info : Picture based subtitle format used on BDs/HD-DVDs
Duration : 1 h 43 min
Bit rate : 15.3 kb/s
Frame rate : 0.237 FPS
Count of elements : 1466
Stream size : 11.3 MiB (0%)
Language : English
Default : No
Forced : No
Original source medium : Blu-ray

Text #5
ID : 10
ID in the original source medium : 4770 (0x12A2)
Format : PGS
Muxing mode : zlib
Codec ID : S_HDMV/PGS
Codec ID/Info : Picture based subtitle format used on BDs/HD-DVDs
Duration : 1 h 43 min
Bit rate : 60.7 kb/s
Frame rate : 0.529 FPS
Count of elements : 3299
Stream size : 45.2 MiB (0%)
Language : English
Default : No
Forced : No
Original source medium : Blu-ray

Text #6
ID : 11
ID in the original source medium : 4771 (0x12A3)
Format : PGS
Muxing mode : zlib
Codec ID : S_HDMV/PGS
Codec ID/Info : Picture based subtitle format used on BDs/HD-DVDs
Duration : 1 h 43 min
Bit rate : 68.0 kb/s
Frame rate : 0.567 FPS
Count of elements : 3532
Stream size : 50.4 MiB (0%)
Language : English
Default : No
Forced : No
Original source medium : Blu-ray

Text #7
ID : 12
ID in the original source medium : 4772 (0x12A4)
Format : PGS
Muxing mode : zlib
Codec ID : S_HDMV/PGS
Codec ID/Info : Picture based subtitle format used on BDs/HD-DVDs
Duration : 1 h 22 min
Bit rate : 22.7 kb/s
Frame rate : 0.045 FPS
Count of elements : 225
Stream size : 13.4 MiB (0%)
Language : English
Default : No
Forced : No
Original source medium : Blu-ray

Text #8
ID : 13
ID in the original source medium : 4772 (0x12A4)
Format : PGS
Muxing mode : zlib
Codec ID : S_HDMV/PGS
Codec ID/Info : Picture based subtitle format used on BDs/HD-DVDs
Duration : 1 h 22 min
Bit rate : 22.7 kb/s
Frame rate : 0.045 FPS
Count of elements : 225
Stream size : 13.4 MiB (0%)
Language : English
Default : No
Forced : No
Original source medium : Blu-ray

Menu
00:00:00.000 : en:Chapter 01
00:04:06.663 : en:Chapter 02
00:09:49.839 : en:Chapter 03
00:12:54.940 : en:Chapter 04
00:17:13.532 : en:Chapter 05
00:26:35.802 : en:Chapter 06
00:37:28.371 : en:Chapter 07
00:42:44.520 : en:Chapter 08
00:47:19.002 : en:Chapter 09
00:54:05.867 : en:Chapter 10
00:59:16.761 : en:Chapter 11
01:07:56.405 : en:Chapter 12
01:15:52.422 : en:Chapter 13
01:23:25.667 : en:Chapter 14
01:29:34.952 : en:Chapter 15
01:37:07.446 : en:Chapter 16

本帖子中包含更多资源

您需要 登录 才可以下载或查看,没有帐号?立即注册

x
回复

使用道具 举报

您需要登录后才可以回帖 登录 | 立即注册

本版积分规则

QQ|Archiver|手机版|小黑屋|原盘天堂 好多盘 点击这里给我发消息

GMT+8, 2023-1-29 10:52 , Processed in 0.064182 second(s), 24 queries .

Powered by Discuz! X3.4

Copyright © 2001-2021, Tencent Cloud.

快速回复 返回顶部 返回列表