请选择 进入手机版 | 继续访问电脑版
本站Q群713428235【盘盘多】已满,请新会员加原盘天堂新官方QQ群709708625【好多盘】,验证信息填写您在论坛的会员名,不填会员名的无法入群哈,进群后修改您的群名片名字为您在论坛的会员名,请务必修改,否则群成员多了不知道您是哪个会员。

原盘天堂

 找回密码
 立即注册
京东商城当当华为商城名牌时尚折扣网,一个新型的网上购物平台,我们每周为您精选3~4个国际知名品牌,商品折扣低至2折限时限量售卖,商品囊括时装、护肤品、箱包、皮具、配饰、香水等等,琳琅满目。亿格瑞A10硬盘播放器 苏宁易购
查看: 58|回复: 0

4k蓝光原盘bdmv 尔虞我诈 英语原版 used.cars.1980.2160p.bluray.hevc.dts-hd.ma.5.1[91.13 GB]

[复制链接]

7423

主题

8549

帖子

135万

积分

管理员

Rank: 18Rank: 18Rank: 18Rank: 18Rank: 18

积分
1353705
发表于 2022-12-25 07:30:56 | 显示全部楼层 |阅读模式








◎译  名 尔虞我诈/旧车/抢食世界
◎片  名 Used Cars
◎年  代 1980
◎产  地 美国
◎类  别 喜剧
◎语  言 英语
◎上映日期 1980-07-11
◎IMDb评分 6.7/10 from 15529 users
◎IMDb链接 https://www.imdb.com/title/tt0081698/
◎豆瓣评分 6.9/10 from 240 users
◎豆瓣链接 https://douban.com/subject/1301183/
◎片  长 113 分钟
◎导  演 罗伯特·泽米吉斯 Robert Zemeckis
◎编  剧 鲍勃·盖尔 Bob Gale / 罗伯特·泽米吉斯 Robert Zemeckis
◎主  演 库尔特·拉塞尔 Kurt Russell
      杰克·瓦尔登 Jack Warden
      格里特·格雷厄姆 Gerrit Graham
      乔·弗莱厄蒂 Joe Flaherty
      Allen Wood Allen Wood
      伍德罗夫·帕弗雷 Woodrow Parfrey
      Cheryl Rixon Cheryl Rixon
      Josiah Steiner Josiah Steiner
      德博泰勒 Dub Taylor
      温迪·乔·斯佩博 Wendie Jo Sperber
      宾斯·莫洛克 Beans Morocco
      丽塔·塔格特 Rita Taggart
      Clint Lilley Clint Lilley
      Michael Talbott Michael Talbott
      Al Lewis Al Lewis
      马克·麦克卢尔 Marc McClure
      Buxx Banner Buxx Banner
      大卫·L·兰德尔 David L. Lander
      阿方索·阿雷奥 Alfonso Arau
      迪克·米勒 Dick Miller
      贝蒂·托马斯 Betty Thomas
      迈克尔·麦基恩 Michael McKean
      Gene Blakely Gene Blakely
      德博拉·哈蒙 Deborah Harmon
      特伦斯·诺克斯 Terence Knox
      弗兰克·麦克雷 Frank McRae
      花生 Peanuts

◎简  介

  
  路克独自一人经营二手车场,鲁迪是其中的一名销售员。鲁迪为人疯狂豪放,为了增加销售量提高业绩,他想尽奇招吸引顾客,甚至干违法的事。老板的弟弟罗伊狠毒奸诈,为了继承路克的家产和车场,他用奸计害死了路克。
  
  正当鲁迪为对付罗伊而绞尽脑汁时,路克的女儿回来了。这下可有好戏看了,他们联手对抗罗伊,一段精彩绝伦的尔虞我诈大战就此展开……


DISC INFO:

Disc Title:     Used.Cars.1980.COMPLETE.UHD.BLURAY-B0MBARDiERS
Disc Size:      97,849,807,971 bytes
Protection:     AACS2
Extras:         Ultra HD
BDInfo:         0.7.5.9 (compatible layout created by DVDFab 12.0.9.1)

PLAYLIST REPORT:

Name:                   00002.MPLS  
Length:                 1:52:39.711 (h:m:s.ms)
Size:                   82,916,118,528 bytes
Total Bitrate:          98.13 Mbps

(*) Indicates included stream hidden by this playlist.

VIDEO:

Codec                   Bitrate             Description   
-----                   -------             -----------   
MPEG-H HEVC Video       70000 kbps          2160p / 23.976 fps / 16:9 / Main 10 @ Level 5.1 @ High / 4:2:0 / 10 bits / 1000nits / HDR10 / BT.2020
* MPEG-H HEVC Video     18042 kbps (20.49%) 1080p / 23.976 fps / 16:9 / Main 10 @ Level 5.1 @ High / 4:2:0 / 10 bits / 1000nits / Dolby Vision FEL / BT.2020

AUDIO:

Codec                           Language        Bitrate         Description   
-----                           --------        -------         -----------   
DTS-HD Master Audio             English         2012 kbps       2.0 / 48 kHz / 2012 kbps / 24-bit (DTS Core: 2.0 / 48 kHz / 1509 kbps / 24-bit)
DTS-HD Master Audio             English         3156 kbps       5.1 / 48 kHz / 3156 kbps / 24-bit (DTS Core: 5.1 / 48 kHz / 1509 kbps / 24-bit)
Dolby Digital Audio             English         192 kbps        2.0 / 48 kHz / 192 kbps

SUBTITLES:

Codec                           Language        Bitrate         Description   
-----                           --------        -------         -----------   
Presentation Graphics           English         54.615 kbps   


Video
ID : 1
ID in the original source medium : 4113 (0x1011)
Format : HEVC
Format/Info : High Efficiency Video Coding
Format profile : Main [email protected]@High
HDR format : Dolby Vision, Version 1.0, dvhe.07.06, BL+EL+RPU, Blu-ray compatible / SMPTE ST 2086, HDR10 compatible
Codec ID : V_MPEGH/ISO/HEVC
Duration : 1 h 52 min
Bit rate : 88.0 Mb/s
Width : 3 840 pixels
Height : 2 160 pixels
Display aspect ratio : 16:9
Frame rate mode : Constant
Frame rate : 23.976 (24000/1001) FPS
Color space : YUV
Chroma subsampling : 4:2:0 (Type 2)
Bit depth : 10 bits
Bits/(Pixel*Frame) : 0.443
Stream size : 69.3 GiB (94%)
Language : English
Default : No
Forced : No
Color range : Limited
Color primaries : BT.2020
Transfer characteristics : PQ
Matrix coefficients : BT.2020 non-constant
Mastering display color primaries : Display P3
Mastering display luminance : min: 0.0001 cd/m2, max: 1000 cd/m2
Maximum Content Light Level : 997 cd/m2
Maximum Frame-Average Light Level : 224 cd/m2
Original source medium : Blu-ray

Audio #1
ID : 2
ID in the original source medium : 4353 (0x1101)
Format : DTS XLL
Format/Info : Digital Theater Systems
Commercial name : DTS-HD Master Audio
Codec ID : A_DTS
Duration : 1 h 52 min
Bit rate mode : Variable
Bit rate : 3 156 kb/s
Channel(s) : 6 channels
Channel layout : C L R Ls Rs LFE
Sampling rate : 48.0 kHz
Frame rate : 93.750 FPS (512 SPF)
Bit depth : 24 bits
Compression mode : Lossless
Stream size : 2.48 GiB (3%)
Title : DTS-HD MA 5.1
Language : English
Default : No
Forced : No
Original source medium : Blu-ray

Audio #2
ID : 3
Format : AC-3
Format/Info : Audio Coding 3
Commercial name : Dolby Digital
Codec ID : A_AC3
Duration : 1 h 52 min
Bit rate mode : Constant
Bit rate : 640 kb/s
Channel(s) : 6 channels
Channel layout : L R C LFE Ls Rs
Sampling rate : 48.0 kHz
Frame rate : 31.250 FPS (1536 SPF)
Compression mode : Lossy
Stream size : 516 MiB (1%)
Title : DD 5.1
Language : English
Service kind : Complete Main
Default : No
Forced : No

Audio #3
ID : 4
ID in the original source medium : 4352 (0x1100)
Format : DTS XLL
Format/Info : Digital Theater Systems
Commercial name : DTS-HD Master Audio
Codec ID : A_DTS
Duration : 1 h 52 min
Bit rate mode : Variable
Bit rate : 2 012 kb/s
Channel(s) : 2 channels
Channel layout : L R
Sampling rate : 48.0 kHz
Frame rate : 93.750 FPS (512 SPF)
Bit depth : 24 bits
Compression mode : Lossless
Stream size : 1.58 GiB (2%)
Title : DTS-HD MA 2.0
Language : English
Default : Yes
Forced : No
Original source medium : Blu-ray

Audio #4
ID : 5
ID in the original source medium : 4354 (0x1102)
Format : AC-3
Format/Info : Audio Coding 3
Commercial name : Dolby Digital
Codec ID : A_AC3
Duration : 1 h 52 min
Bit rate mode : Constant
Bit rate : 192 kb/s
Channel(s) : 2 channels
Channel layout : L R
Sampling rate : 48.0 kHz
Frame rate : 31.250 FPS (1536 SPF)
Compression mode : Lossy
Stream size : 155 MiB (0%)
Title : DD 2.0
Language : English
Service kind : Complete Main
Default : No
Forced : No
Original source medium : Blu-ray

Text #1
ID : 6
Format : UTF-8
Codec ID : S_TEXT/UTF8
Codec ID/Info : UTF-8 Plain Text
Duration : 1 h 50 min
Bit rate : 83 b/s
Frame rate : 0.312 FPS
Count of elements : 2070
Stream size : 67.5 KiB (0%)
Language : English
Default : Yes
Forced : No

Text #2
ID : 7
Format : UTF-8
Codec ID : S_TEXT/UTF8
Codec ID/Info : UTF-8 Plain Text
Duration : 1 h 52 min
Bit rate : 91 b/s
Frame rate : 0.347 FPS
Count of elements : 2333
Stream size : 74.7 KiB (0%)
Title : SDH
Language : English
Default : No
Forced : No

Text #3
ID : 8
ID in the original source medium : 4768 (0x12A0)
Format : PGS
Muxing mode : zlib
Codec ID : S_HDMV/PGS
Codec ID/Info : Picture based subtitle format used on BDs/HD-DVDs
Duration : 1 h 52 min
Bit rate : 54.9 kb/s
Frame rate : 0.696 FPS
Count of elements : 4682
Stream size : 44.0 MiB (0%)
Language : English
Default : No
Forced : No
Original source medium : Blu-ray

Menu
00:00:00.000 : en:Chapter 01
00:08:17.121 : en:Chapter 02
00:16:51.093 : en:Chapter 03
00:26:55.447 : en:Chapter 04
00:36:14.380 : en:Chapter 05
00:45:19.425 : en:Chapter 06
00:52:12.546 : en:Chapter 07
00:59:02.997 : en:Chapter 08
01:08:28.270 : en:Chapter 09
01:19:38.064 : en:Chapter 10
01:30:45.565 : en:Chapter 11
01:41:00.304 : en:Chapter 12
01:52:38.835 : en:Chapter 13

本帖子中包含更多资源

您需要 登录 才可以下载或查看,没有帐号?立即注册

x
回复

使用道具 举报

您需要登录后才可以回帖 登录 | 立即注册

本版积分规则

QQ|Archiver|手机版|小黑屋|原盘天堂 好多盘 点击这里给我发消息

GMT+8, 2023-1-29 10:57 , Processed in 0.043212 second(s), 24 queries .

Powered by Discuz! X3.4

Copyright © 2001-2021, Tencent Cloud.

快速回复 返回顶部 返回列表