请选择 进入手机版 | 继续访问电脑版
本站Q群713428235【盘盘多】已满,请新会员加原盘天堂新官方QQ群709708625【好多盘】,验证信息填写您在论坛的会员名,不填会员名的无法入群哈,进群后修改您的群名片名字为您在论坛的会员名,请务必修改,否则群成员多了不知道您是哪个会员。

原盘天堂

 找回密码
 立即注册
京东商城当当华为商城名牌时尚折扣网,一个新型的网上购物平台,我们每周为您精选3~4个国际知名品牌,商品折扣低至2折限时限量售卖,商品囊括时装、护肤品、箱包、皮具、配饰、香水等等,琳琅满目。亿格瑞A10硬盘播放器 苏宁易购
查看: 33|回复: 0

2d蓝光原盘bdmv 公开赛魅影 英语原版 the.phantom.of.the.open.2021.1080p.bluray.avc.dts-hd.ma.5.1[26.74 GB]

[复制链接]

7075

主题

8089

帖子

134万

积分

管理员

Rank: 18Rank: 18Rank: 18Rank: 18Rank: 18

积分
1349889
发表于 6 天前 | 显示全部楼层 |阅读模式






◎译  名 公开赛魅影/神奇的弗利特克罗夫特/The Fantastic Flitcrofts
◎片  名 The Phantom of the Open
◎年  代 2021
◎产  地 英国
◎类  别 剧情/喜剧/运动
◎语  言 英语
◎上映日期 2021-10-12(伦敦电影节)/2022-03-18(英国)
◎IMDb评分 7.1/10 from 2334 users
◎IMDb链接 https://www.imdb.com/title/tt12572040/
◎豆瓣评分 7.7/10 from 84 users
◎豆瓣链接 https://douban.com/subject/35225518/
◎片  长 102分钟
◎导  演 克雷格·罗伯兹 Craig Roberts
◎编  剧 西蒙·法纳比 Simon Farnaby
◎主  演 马克·里朗斯 Mark Rylance
      莎莉·霍金斯 Sally Hawkins
      瑞斯·伊凡斯 Rhys Ifans
      马克·路易斯·琼斯 Mark Lewis Jones
      约翰·迈尔斯 Johann Myers
      杰克 ·戴维斯 Jake Davies
      巴里·艾尔德 Barry Aird
      克莱尔·阿什顿 Claire Ashton
      乔纳·利斯 Jonah Lees
      阿什·坦顿 Ash Tandon
      克里斯蒂安·利斯 Christian Lees
      艾米·亚历山大 Amy Alexander

◎简  介

  
  莫里斯·弗利特克罗夫特(里朗斯)是一位坚定的乐观主义者,46岁的他是一名起重机司机、前喜剧特技潜水员,偶然获得了1976年英国公开锦标赛预选赛的资格。他一生中从未打过一场高尔夫球,最终打出了121分的最低记录,被组委会禁赛。
  
  莫里斯并未就此罢休,多次通过猫捉老鼠游戏获得参赛资格,并用越来越滑稽的假名来伪装。他的行为让当局头痛不已,自己则成为了民间英雄、世界上最勇敢并广受欢迎的体育弱者。


DISC INFO:

Disc Title:     The.Phantom.of.the.Open.2021.1080p.BluRay.AVC.DTS-HD.MA.5.1-INCUBO
Disc Size:      28,715,353,889 bytes
Protection:     AACS
BDInfo:         0.7.5.9 (compatible layout created by DVDFab 12.0.8.0)

PLAYLIST REPORT:

Name:                   00004.MPLS  
Length:                 1:45:56.875 (h:m:s.ms)
Size:                   28,405,309,440 bytes
Total Bitrate:          35.75 Mbps

VIDEO:

Codec                   Bitrate             Description   
-----                   -------             -----------   
MPEG-4 AVC Video        30000 kbps          1080p / 24 fps / 16:9 / High Profile 4.1

AUDIO:

Codec                           Language        Bitrate         Description   
-----                           --------        -------         -----------   
DTS-HD Master Audio             English         1880 kbps       5.1 / 48 kHz / 1880 kbps / 16-bit (DTS Core: 5.1 / 48 kHz / 1509 kbps / 16-bit)
DTS-HD Master Audio             English         1565 kbps       2.0 / 48 kHz / 1565 kbps / 16-bit (DTS Core: 2.0 / 48 kHz / 1509 kbps / 16-bit)
Dolby Digital Audio             English         192 kbps        2.0 / 48 kHz / 192 kbps

SUBTITLES:

Codec                           Language        Bitrate         Description   
-----                           --------        -------         -----------   
Presentation Graphics           English         49.558 kbps      


Video
ID : 1
ID in the original source medium : 4113 (0x1011)
Format : AVC
Format/Info : Advanced Video Codec
Format profile : [email protected]
Format settings : CABAC / 4 Ref Frames
Format settings, CABAC : Yes
Format settings, Reference frames : 4 frames
Codec ID : V_MPEG4/ISO/AVC
Duration : 1 h 45 min
Bit rate mode : Variable
Bit rate : 30.0 Mb/s
Maximum bit rate : 35.0 Mb/s
Width : 1 920 pixels
Height : 1 080 pixels
Display aspect ratio : 16:9
Frame rate mode : Constant
Frame rate : 24.000 FPS
Standard : NTSC
Color space : YUV
Chroma subsampling : 4:2:0
Bit depth : 8 bits
Scan type : Progressive
Bits/(Pixel*Frame) : 0.603
Stream size : 22.2 GiB (89%)
Language : English
Default : No
Forced : No
Color range : Limited
Color primaries : BT.709
Transfer characteristics : BT.709
Matrix coefficients : BT.709
Original source medium : Blu-ray

Audio #1
ID : 2
ID in the original source medium : 4352 (0x1100)
Format : DTS XLL
Format/Info : Digital Theater Systems
Commercial name : DTS-HD Master Audio
Codec ID : A_DTS
Duration : 1 h 45 min
Bit rate mode : Variable
Bit rate : 1 880 kb/s
Channel(s) : 6 channels
Channel layout : C L R Ls Rs LFE
Sampling rate : 48.0 kHz
Frame rate : 93.750 FPS (512 SPF)
Bit depth : 16 bits
Compression mode : Lossless
Stream size : 1.39 GiB (6%)
Title : DTS-HD MA 5.1
Language : English
Default : Yes
Forced : No
Original source medium : Blu-ray

Audio #2
ID : 3
ID in the original source medium : 4353 (0x1101)
Format : DTS XLL
Format/Info : Digital Theater Systems
Commercial name : DTS-HD Master Audio
Codec ID : A_DTS
Duration : 1 h 45 min
Bit rate mode : Variable
Bit rate : 1 565 kb/s
Channel(s) : 2 channels
Channel layout : L R
Sampling rate : 48.0 kHz
Frame rate : 93.750 FPS (512 SPF)
Bit depth : 16 bits
Compression mode : Lossless
Stream size : 1.16 GiB (5%)
Title : DTS-HD MA 2.0
Language : English
Default : No
Forced : No
Original source medium : Blu-ray

Audio #3
ID : 4
ID in the original source medium : 4354 (0x1102)
Format : AC-3
Format/Info : Audio Coding 3
Commercial name : Dolby Digital
Codec ID : A_AC3
Duration : 1 h 45 min
Bit rate mode : Constant
Bit rate : 192 kb/s
Channel(s) : 2 channels
Channel layout : L R
Sampling rate : 48.0 kHz
Frame rate : 31.250 FPS (1536 SPF)
Compression mode : Lossy
Stream size : 145 MiB (0%)
Title : DD 2.0
Language : English
Service kind : Complete Main
Default : No
Forced : No
Original source medium : Blu-ray

Text #1
ID : 5
Format : UTF-8
Codec ID : S_TEXT/UTF8
Codec ID/Info : UTF-8 Plain Text
Duration : 1 h 42 min
Bit rate : 68 b/s
Frame rate : 0.234 FPS
Count of elements : 1435
Stream size : 51.4 KiB (0%)
Language : English
Default : Yes
Forced : No

Text #2
ID : 6
Format : UTF-8
Codec ID : S_TEXT/UTF8
Codec ID/Info : UTF-8 Plain Text
Duration : 1 h 42 min
Bit rate : 73 b/s
Frame rate : 0.256 FPS
Count of elements : 1576
Stream size : 55.4 KiB (0%)
Title : SDH
Language : English
Default : No
Forced : No

Text #3
ID : 7
ID in the original source medium : 4608 (0x1200)
Format : PGS
Muxing mode : zlib
Codec ID : S_HDMV/PGS
Codec ID/Info : Picture based subtitle format used on BDs/HD-DVDs
Duration : 1 h 42 min
Bit rate : 51.2 kb/s
Frame rate : 0.517 FPS
Count of elements : 3180
Stream size : 37.6 MiB (0%)
Language : English
Default : No
Forced : No
Original source medium : Blu-ray

Menu
00:00:00.000 : en:Chapter 01
00:06:04.500 : en:Chapter 02
00:11:21.541 : en:Chapter 03
00:18:09.458 : en:Chapter 04
00:25:19.791 : en:Chapter 05
00:30:26.250 : en:Chapter 06
00:41:11.541 : en:Chapter 07
00:48:18.666 : en:Chapter 08
00:56:08.875 : en:Chapter 09
01:03:55.708 : en:Chapter 10
01:10:37.916 : en:Chapter 11
01:15:40.500 : en:Chapter 12
01:21:12.541 : en:Chapter 13
01:28:00.500 : en:Chapter 14
01:36:45.041 : en:Chapter 15
01:42:34.125 : en:Chapter 16

本帖子中包含更多资源

您需要 登录 才可以下载或查看,没有帐号?立即注册

x
回复

使用道具 举报

您需要登录后才可以回帖 登录 | 立即注册

本版积分规则

QQ|Archiver|手机版|小黑屋|原盘天堂 好多盘 点击这里给我发消息

GMT+8, 2022-8-10 04:17 , Processed in 0.045257 second(s), 25 queries .

Powered by Discuz! X3.4

Copyright © 2001-2021, Tencent Cloud.

快速回复 返回顶部 返回列表