请选择 进入手机版 | 继续访问电脑版
本站Q群713428235【盘盘多】已满,请新会员加原盘天堂新官方QQ群709708625【好多盘】,验证信息填写您在论坛的会员名,不填会员名的无法入群哈,进群后修改您的群名片名字为您在论坛的会员名,请务必修改,否则群成员多了不知道您是哪个会员。

原盘天堂

 找回密码
 立即注册
京东商城当当华为商城名牌时尚折扣网,一个新型的网上购物平台,我们每周为您精选3~4个国际知名品牌,商品折扣低至2折限时限量售卖,商品囊括时装、护肤品、箱包、皮具、配饰、香水等等,琳琅满目。亿格瑞A10硬盘播放器 苏宁易购
查看: 33|回复: 0

2d蓝光原盘bdmv 男人 英语原版 men.2022.1080p.bluray.avc.dts-hd.ma.5.1[36.11 GB]

[复制链接]

7075

主题

8089

帖子

134万

积分

管理员

Rank: 18Rank: 18Rank: 18Rank: 18Rank: 18

积分
1349889
发表于 6 天前 | 显示全部楼层 |阅读模式








◎译  名 男人/们(台)/男人们/人类/人们/人山人海
◎片  名 Men
◎年  代 2022
◎产  地 英国
◎类  别 恐怖
◎语  言 英语
◎上映日期 2022-05-20(美国)
◎IMDb评分 6.1/10 from 24076 users
◎IMDb链接 https://www.imdb.com/title/tt13841850/
◎豆瓣评分 6.9/10 from 11645 users
◎豆瓣链接 https://douban.com/subject/35341588/
◎片  长 100分钟
◎导  演 亚历克斯·加兰 Alex Garland
◎编  剧 亚历克斯·加兰 Alex Garland
◎主  演 杰西·巴克利 Jessie Buckley
      罗里·金尼尔 Rory Kinnear
      帕帕·厄希度 Paapa Essiedu
      盖尔·兰金 Gayle Rankin
      莎拉·托米 Sarah Twomey
      扎克·罗瑟拉-奥克斯利 Zak Rothera-Oxley
      水野索诺娅 Sonoya Mizuno

◎简  介

  
  丈夫过世之后,哈珀(杰西巴克利 饰)来到一处美丽的英国乡村疗伤,然而,这里的树林中似乎有某人或某物在跟踪她,这些潜藏在她心中隐约的恐惧,随着时间逐渐转变成具体的恶梦……
  

◎获奖情况

  第75届戛纳电影节 (2022)
  导演双周单元(提名) 亚历克斯·加兰

DISC INFO:

Disc Title:     Men.2022.1080p.BluRay.AVC.DTS-HD.MA.5.1-FGT
Disc Size:      38,768,873,742 bytes
Protection:     AACS
Extras:         BD-Java
BDInfo:         0.7.5.9 (compatible layout created by DVDFab 12.0.8.0)

PLAYLIST REPORT:

Name:                   00664.MPLS  
Length:                 1:40:09.044 (h:m:s.ms)
Size:                   30,413,346,816 bytes
Total Bitrate:          40.49 Mbps

VIDEO:

Codec                   Bitrate             Description   
-----                   -------             -----------   
MPEG-4 AVC Video        35557 kbps          1080p / 23.976 fps / 16:9 / High Profile 4.1

AUDIO:

Codec                           Language        Bitrate         Description   
-----                           --------        -------         -----------   
DTS-HD Master Audio             English         2907 kbps       5.1 / 48 kHz / 2907 kbps / 24-bit (DTS Core: 5.1 / 48 kHz / 1509 kbps / 24-bit)

SUBTITLES:

Codec                           Language        Bitrate         Description   
-----                           --------        -------         -----------   
Presentation Graphics           English         23.107 kbps                    
Presentation Graphics           Spanish         15.542 kbps  


Video
ID : 1
ID in the original source medium : 4113 (0x1011)
Format : AVC
Format/Info : Advanced Video Codec
Format profile : [email protected]
Format settings : CABAC / 4 Ref Frames
Format settings, CABAC : Yes
Format settings, Reference frames : 4 frames
Codec ID : V_MPEG4/ISO/AVC
Duration : 1 h 40 min
Bit rate mode : Variable
Bit rate : 35.1 Mb/s
Maximum bit rate : 37.0 Mb/s
Width : 1 920 pixels
Height : 1 080 pixels
Display aspect ratio : 16:9
Frame rate mode : Constant
Frame rate : 23.976 (24000/1001) FPS
Color space : YUV
Chroma subsampling : 4:2:0
Bit depth : 8 bits
Scan type : Progressive
Bits/(Pixel*Frame) : 0.705
Stream size : 24.5 GiB (92%)
Language : English
Default : No
Forced : No
Original source medium : Blu-ray

Audio
ID : 2
ID in the original source medium : 4352 (0x1100)
Format : DTS XLL
Format/Info : Digital Theater Systems
Commercial name : DTS-HD Master Audio
Codec ID : A_DTS
Duration : 1 h 40 min
Bit rate mode : Variable
Bit rate : 2 907 kb/s
Channel(s) : 6 channels
Channel layout : C L R Ls Rs LFE
Sampling rate : 48.0 kHz
Frame rate : 93.750 FPS (512 SPF)
Bit depth : 24 bits
Compression mode : Lossless
Stream size : 2.03 GiB (8%)
Title : DTS-HD MA 5.1
Language : English
Default : Yes
Forced : No
Original source medium : Blu-ray

Text #1
ID : 3
Format : UTF-8
Codec ID : S_TEXT/UTF8
Codec ID/Info : UTF-8 Plain Text
Duration : 1 h 37 min
Bit rate : 28 b/s
Frame rate : 0.130 FPS
Count of elements : 760
Stream size : 20.6 KiB (0%)
Language : English
Default : Yes
Forced : No

Text #2
ID : 4
Format : UTF-8
Codec ID : S_TEXT/UTF8
Codec ID/Info : UTF-8 Plain Text
Duration : 1 h 37 min
Bit rate : 37 b/s
Frame rate : 0.176 FPS
Count of elements : 1033
Stream size : 26.8 KiB (0%)
Title : SDH
Language : English
Default : No
Forced : No

Text #3
ID : 5
ID in the original source medium : 4608 (0x1200)
Format : PGS
Muxing mode : zlib
Codec ID : S_HDMV/PGS
Codec ID/Info : Picture based subtitle format used on BDs/HD-DVDs
Duration : 1 h 37 min
Bit rate : 23.7 kb/s
Frame rate : 0.359 FPS
Count of elements : 2106
Stream size : 16.6 MiB (0%)
Language : English
Default : No
Forced : No
Original source medium : Blu-ray

Text #4
ID : 6
ID in the original source medium : 4609 (0x1201)
Format : PGS
Muxing mode : zlib
Codec ID : S_HDMV/PGS
Codec ID/Info : Picture based subtitle format used on BDs/HD-DVDs
Duration : 1 h 36 min
Bit rate : 16.2 kb/s
Frame rate : 0.225 FPS
Count of elements : 1298
Stream size : 11.1 MiB (0%)
Language : Spanish
Default : No
Forced : No
Original source medium : Blu-ray

Menu
00:00:00.000 : en:Chapter 01
00:04:54.043 : en:Chapter 02
00:11:59.051 : en:Chapter 03
00:18:28.232 : en:Chapter 04
00:26:45.729 : en:Chapter 05
00:30:58.815 : en:Chapter 06
00:36:37.778 : en:Chapter 07
00:42:47.314 : en:Chapter 08
00:50:44.124 : en:Chapter 09
00:55:47.427 : en:Chapter 10
01:02:08.474 : en:Chapter 11
01:07:06.522 : en:Chapter 12
01:14:47.691 : en:Chapter 13
01:22:11.343 : en:Chapter 14
01:24:54.172 : en:Chapter 15
01:34:46.138 : en:Chapter 16

本帖子中包含更多资源

您需要 登录 才可以下载或查看,没有帐号?立即注册

x
回复

使用道具 举报

您需要登录后才可以回帖 登录 | 立即注册

本版积分规则

QQ|Archiver|手机版|小黑屋|原盘天堂 好多盘 点击这里给我发消息

GMT+8, 2022-8-10 03:22 , Processed in 0.049874 second(s), 25 queries .

Powered by Discuz! X3.4

Copyright © 2001-2021, Tencent Cloud.

快速回复 返回顶部 返回列表