请选择 进入手机版 | 继续访问电脑版
本站Q群713428235【盘盘多】已满,请新会员加原盘天堂新官方QQ群709708625【好多盘】,验证信息填写您在论坛的会员名,不填会员名的无法入群哈,进群后修改您的群名片名字为您在论坛的会员名,请务必修改,否则群成员多了不知道您是哪个会员。

原盘天堂

 找回密码
 立即注册
京东商城当当华为商城名牌时尚折扣网,一个新型的网上购物平台,我们每周为您精选3~4个国际知名品牌,商品折扣低至2折限时限量售卖,商品囊括时装、护肤品、箱包、皮具、配饰、香水等等,琳琅满目。亿格瑞A10硬盘播放器 苏宁易购
查看: 28|回复: 0

4k蓝光原盘bdmv 刺猬索尼克2 英语原版 sonic.the.hedgehog.2.2022.2160p.bluray.hevc.truehd.7.1.atmos[59.09 GB]

[复制链接]

7075

主题

8089

帖子

134万

积分

管理员

Rank: 18Rank: 18Rank: 18Rank: 18Rank: 18

积分
1349889
发表于 6 天前 | 显示全部楼层 |阅读模式








◎译  名 刺猬索尼克2/超音鼠大电影2(港)/音速小子2(台)
◎片  名 Sonic the Hedgehog 2
◎年  代 2022
◎产  地 美国/日本
◎类  别 喜剧/动作/科幻/动画/冒险
◎语  言 英语
◎上映日期 2022(中国大陆)/2022-04-08(美国)
◎IMDb评分 6.5/10 from 54719 users
◎IMDb链接 https://www.imdb.com/title/tt12412888/
◎豆瓣评分 5.7/10 from 7035 users
◎豆瓣链接 https://douban.com/subject/35083986/
◎片  长 122分钟
◎导  演 杰夫·福勒 Jeff Fowler
◎编  剧 帕特里克·凯西 Patrick Casey / 乔什·米勒 Josh Miller / 约翰·惠廷顿 John Whittington
◎主  演 詹姆斯·麦斯登 James Marsden
      金·凯瑞 Jim Carrey
      本·施瓦茨 Ben Schwartz
      提卡·森普特 Tika Sumpter
      伊德里斯·艾尔巴 Idris Elba
      娜塔莎·罗斯韦尔 Natasha Rothwell
      亚当·佩里 Adam Pally
      谢默·摩尔 Shemar Moore
      李·马贾道布 Lee Majdoub
      科琳·欧肖内希 Colleen O'Shaughnessey
      梅洛德·诺西普·尼曼 Melody Nosipho Niemann
      汤姆·巴特勒 Tom Butler
      布拉德·卡利利莫库 Brad Kalilimoku
      杰夫·桑卡 Jeff Sanca
      伊丽莎白·鲍恩 Elizabeth Bowen
      多恩·列夫 Don Lew
      里斯·威廉姆斯 Rhys Williams
      西蒙·钱 Simon Chin
      弗雷泽·科比特 Fraser Corbett
      奎因·厄利 Quinn Early
      马库斯·奥雷里奥 Marcus Aurelio
      尼托·拉里奥萨 Nito Larioza
      迈克·鲁菲诺 Mike Rufino
      詹姆斯·兰索恩 James Ransone

◎简  介

  
  索尼克在绿丘镇安顿下来之后,就急着要证明自己有能力成为一名真正的英雄。当蛋头博士带着全新的搭档纳克鲁斯,又回来寻找一块力量强大足以毁灭人类文明的翡翠的时候,他就面对了另一个严峻的考验。这次索尼克和他自己的跟班塔尔斯携手合作,一起踏上一场环游世界的冒险旅程,希望能在那块翡翠落入坏人手中之前先找到它。


DISC INFO:

Disc Title:     Sonic.the.Hedgehog.2.2022.2160p.BluRay.HEVC.TrueHD.7.1.Atmos-ESiR
Disc Size:      63,432,943,137 bytes
Protection:     AACS2
Extras:         Ultra HD, BD-Java
BDInfo:         0.7.5.9 (compatible layout created by DVDFab 12.0.8.0)

PLAYLIST REPORT:

Name:                   00040.MPLS  
Length:                 2:02:18.831 (h:m:s.ms)
Size:                   54,329,057,280 bytes
Total Bitrate:          59.22 Mbps

(*) Indicates included stream hidden by this playlist.

VIDEO:

Codec                   Bitrate             Description   
-----                   -------             -----------   
MPEG-H HEVC Video       41781 kbps          2160p / 23.976 fps / 16:9 / Main 10 @ Level 5.1 @ High / 4:2:0 / 10 bits / 1000nits / HDR10 / BT.2020
* MPEG-H HEVC Video     3864 kbps (8.47%)   1080p / 23.976 fps / 16:9 / Main 10 @ Level 5.1 @ High / 4:2:0 / 10 bits / 1000nits / Dolby Vision FEL / BT.2020

AUDIO:

Codec                           Language        Bitrate         Description   
-----                           --------        -------         -----------   
Dolby TrueHD/Atmos Audio        English         5513 kbps       7.1+11 objects / 48 kHz / 4873 kbps / 24-bit (AC3 Core: 5.1-EX / 48 kHz / 640 kbps)
Dolby Digital Audio             English         640 kbps        5.1 / 48 kHz / 640 kbps
Dolby Digital Audio             Spanish         640 kbps        5.1 / 48 kHz / 640 kbps
Dolby Digital Audio             Spanish         640 kbps        5.1 / 48 kHz / 640 kbps
Dolby Digital Audio             French          640 kbps        5.1 / 48 kHz / 640 kbps
Dolby Digital Audio             French          640 kbps        5.1 / 48 kHz / 640 kbps
Dolby Digital Audio             English         224 kbps        2.0 / 48 kHz / 224 kbps

SUBTITLES:

Codec                           Language        Bitrate         Description   
-----                           --------        -------         -----------   
Presentation Graphics           English         34.222 kbps                    
Presentation Graphics           English         43.945 kbps                    
Presentation Graphics           Danish          29.159 kbps                    
Presentation Graphics           Spanish         34.195 kbps                    
Presentation Graphics           Spanish         31.879 kbps                    
Presentation Graphics           French          30.037 kbps                    
Presentation Graphics           French          33.813 kbps                    
Presentation Graphics           Norwegian       29.471 kbps                    
Presentation Graphics           Finnish         27.515 kbps                    
Presentation Graphics           Swedish         30.015 kbps                    
Presentation Graphics           English         84.337 kbps                    
Presentation Graphics           Spanish         56.209 kbps                    
Presentation Graphics           Spanish         65.601 kbps                    
Presentation Graphics           French          57.035 kbps                    
Presentation Graphics           French          71.386 kbps      


Video
ID : 1
ID in the original source medium : 4113 (0x1011)
Format : HEVC
Format/Info : High Efficiency Video Coding
Format profile : Main [email protected]@High
HDR format : Dolby Vision, Version 1.0, dvhe.07.06, BL+EL+RPU, Blu-ray compatible / SMPTE ST 2086, HDR10 compatible
Codec ID : V_MPEGH/ISO/HEVC
Duration : 2 h 2 min
Bit rate : 45.7 Mb/s
Width : 3 840 pixels
Height : 2 160 pixels
Display aspect ratio : 16:9
Frame rate mode : Constant
Frame rate : 23.976 (24000/1001) FPS
Color space : YUV
Chroma subsampling : 4:2:0 (Type 2)
Bit depth : 10 bits
Bits/(Pixel*Frame) : 0.230
Stream size : 39.0 GiB (77%)
Language : English
Default : No
Forced : No
Color range : Limited
Color primaries : BT.2020
Transfer characteristics : PQ
Matrix coefficients : BT.2020 non-constant
Mastering display color primaries : Display P3
Mastering display luminance : min: 0.0001 cd/m2, max: 1000 cd/m2
Maximum Content Light Level : 2144 cd/m2
Maximum Frame-Average Light Level : 294 cd/m2
Original source medium : Blu-ray

Audio #1
ID : 2
ID in the original source medium : 4352 (0x1100)
Format : MLP FBA 16-ch
Format/Info : Meridian Lossless Packing FBA with 16-channel presentation
Commercial name : Dolby TrueHD with Dolby Atmos
Codec ID : A_TRUEHD
Duration : 2 h 2 min
Bit rate mode : Variable
Bit rate : 4 873 kb/s
Maximum bit rate : 8 142 kb/s
Channel(s) : 8 channels
Channel layout : L R C LFE Ls Rs Lb Rb
Sampling rate : 48.0 kHz
Frame rate : 1 200.000 FPS (40 SPF)
Bit depth : 24 bits
Compression mode : Lossless
Stream size : 4.16 GiB (8%)
Title : TrueHD 7.1 Atmos
Language : English
Default : Yes
Forced : No
Original source medium : Blu-ray
Number of dynamic objects : 11
Bed channel count : 1 channel
Bed channel configuration : LFE

Audio #2
ID : 3
Format : DTS XLL
Format/Info : Digital Theater Systems
Commercial name : DTS-HD Master Audio
Codec ID : A_DTS
Duration : 2 h 2 min
Bit rate mode : Variable
Bit rate : 4 282 kb/s
Channel(s) : 8 channels
Channel layout : C L R LFE Lb Rb Lss Rss
Sampling rate : 48.0 kHz
Frame rate : 93.750 FPS (512 SPF)
Bit depth : 24 bits
Compression mode : Lossless
Stream size : 3.66 GiB (7%)
Title : DTS-HD MA 7.1
Language : English
Default : No
Forced : No

Audio #3
ID : 4
ID in the original source medium : 4352 (0x1100)
Format : AC-3
Format/Info : Audio Coding 3
Commercial name : Dolby Digital
Format settings : Dolby Surround EX
Codec ID : A_AC3
Duration : 2 h 2 min
Bit rate mode : Constant
Bit rate : 640 kb/s
Channel(s) : 6 channels
Channel layout : L R C LFE Ls Rs
Sampling rate : 48.0 kHz
Frame rate : 31.250 FPS (1536 SPF)
Compression mode : Lossy
Stream size : 560 MiB (1%)
Title : DD 5.1
Language : English
Service kind : Complete Main
Default : No
Forced : No
Original source medium : Blu-ray

Audio #4
ID : 5
ID in the original source medium : 4353 (0x1101)
Format : AC-3
Format/Info : Audio Coding 3
Commercial name : Dolby Digital
Codec ID : A_AC3
Duration : 2 h 2 min
Bit rate mode : Constant
Bit rate : 640 kb/s
Channel(s) : 6 channels
Channel layout : L R C LFE Ls Rs
Sampling rate : 48.0 kHz
Frame rate : 31.250 FPS (1536 SPF)
Compression mode : Lossy
Stream size : 560 MiB (1%)
Title : DD 5.1
Language : English
Service kind : Complete Main
Default : No
Forced : No
Original source medium : Blu-ray

Audio #5
ID : 6
ID in the original source medium : 4354 (0x1102)
Format : AC-3
Format/Info : Audio Coding 3
Commercial name : Dolby Digital
Codec ID : A_AC3
Duration : 2 h 2 min
Bit rate mode : Constant
Bit rate : 640 kb/s
Channel(s) : 6 channels
Channel layout : L R C LFE Ls Rs
Sampling rate : 48.0 kHz
Frame rate : 31.250 FPS (1536 SPF)
Compression mode : Lossy
Stream size : 560 MiB (1%)
Title : DD 5.1
Language : Spanish
Service kind : Complete Main
Default : No
Forced : No
Original source medium : Blu-ray

Audio #6
ID : 7
ID in the original source medium : 4355 (0x1103)
Format : AC-3
Format/Info : Audio Coding 3
Commercial name : Dolby Digital
Codec ID : A_AC3
Duration : 2 h 2 min
Bit rate mode : Constant
Bit rate : 640 kb/s
Channel(s) : 6 channels
Channel layout : L R C LFE Ls Rs
Sampling rate : 48.0 kHz
Frame rate : 31.250 FPS (1536 SPF)
Compression mode : Lossy
Stream size : 560 MiB (1%)
Title : DD 5.1
Language : Spanish
Service kind : Complete Main
Default : No
Forced : No
Original source medium : Blu-ray

Audio #7
ID : 8
ID in the original source medium : 4356 (0x1104)
Format : AC-3
Format/Info : Audio Coding 3
Commercial name : Dolby Digital
Codec ID : A_AC3
Duration : 2 h 2 min
Bit rate mode : Constant
Bit rate : 640 kb/s
Channel(s) : 6 channels
Channel layout : L R C LFE Ls Rs
Sampling rate : 48.0 kHz
Frame rate : 31.250 FPS (1536 SPF)
Compression mode : Lossy
Stream size : 560 MiB (1%)
Title : DD 5.1
Language : French
Service kind : Complete Main
Default : No
Forced : No
Original source medium : Blu-ray

Audio #8
ID : 9
ID in the original source medium : 4357 (0x1105)
Format : AC-3
Format/Info : Audio Coding 3
Commercial name : Dolby Digital
Codec ID : A_AC3
Duration : 2 h 2 min
Bit rate mode : Constant
Bit rate : 640 kb/s
Channel(s) : 6 channels
Channel layout : L R C LFE Ls Rs
Sampling rate : 48.0 kHz
Frame rate : 31.250 FPS (1536 SPF)
Compression mode : Lossy
Stream size : 560 MiB (1%)
Title : DD 5.1
Language : French
Service kind : Complete Main
Default : No
Forced : No
Original source medium : Blu-ray

Audio #9
ID : 10
ID in the original source medium : 4358 (0x1106)
Format : AC-3
Format/Info : Audio Coding 3
Commercial name : Dolby Digital
Codec ID : A_AC3
Duration : 2 h 2 min
Bit rate mode : Constant
Bit rate : 224 kb/s
Channel(s) : 2 channels
Channel layout : L R
Sampling rate : 48.0 kHz
Frame rate : 31.250 FPS (1536 SPF)
Compression mode : Lossy
Stream size : 196 MiB (0%)
Title : DD 2.0
Language : English
Service kind : Complete Main
Default : No
Forced : No
Original source medium : Blu-ray

Text #1
ID : 11
Format : UTF-8
Codec ID : S_TEXT/UTF8
Codec ID/Info : UTF-8 Plain Text
Duration : 42 min 25 s
Bit rate : 0 b/s
Frame rate : 0.003 FPS
Count of elements : 7
Stream size : 170 Bytes (0%)
Title : FORCED
Language : English
Default : No
Forced : Yes

Text #2
ID : 12
Format : UTF-8
Codec ID : S_TEXT/UTF8
Codec ID/Info : UTF-8 Plain Text
Duration : 1 h 52 min
Bit rate : 59 b/s
Frame rate : 0.246 FPS
Count of elements : 1655
Stream size : 48.8 KiB (0%)
Language : English
Default : Yes
Forced : No

Text #3
ID : 13
Format : UTF-8
Codec ID : S_TEXT/UTF8
Codec ID/Info : UTF-8 Plain Text
Duration : 1 h 52 min
Bit rate : 67 b/s
Frame rate : 0.295 FPS
Count of elements : 1985
Stream size : 55.7 KiB (0%)
Title : SDH
Language : English
Default : No
Forced : No

Text #4
ID : 14
ID in the original source medium : 4768 (0x12A0)
Format : PGS
Muxing mode : zlib
Codec ID : S_HDMV/PGS
Codec ID/Info : Picture based subtitle format used on BDs/HD-DVDs
Duration : 1 h 52 min
Bit rate : 37.3 kb/s
Frame rate : 0.407 FPS
Count of elements : 2736
Stream size : 29.9 MiB (0%)
Language : English
Default : No
Forced : No
Original source medium : Blu-ray

Text #5
ID : 15
ID in the original source medium : 4768 (0x12A0)
Format : PGS
Muxing mode : zlib
Codec ID : S_HDMV/PGS
Codec ID/Info : Picture based subtitle format used on BDs/HD-DVDs
Duration : 42 min 25 s
Bit rate : 264 b/s
Frame rate : 0.006 FPS
Count of elements : 14
Stream size : 82.2 KiB (0%)
Title : FORCED
Language : English
Default : No
Forced : No
Original source medium : Blu-ray

Text #6
ID : 16
ID in the original source medium : 4769 (0x12A1)
Format : PGS
Muxing mode : zlib
Codec ID : S_HDMV/PGS
Codec ID/Info : Picture based subtitle format used on BDs/HD-DVDs
Duration : 1 h 52 min
Bit rate : 48.0 kb/s
Frame rate : 0.595 FPS
Count of elements : 3998
Stream size : 38.4 MiB (0%)
Title : SDH
Language : English
Default : No
Forced : No
Original source medium : Blu-ray

Text #7
ID : 17
ID in the original source medium : 4770 (0x12A2)
Format : PGS
Muxing mode : zlib
Codec ID : S_HDMV/PGS
Codec ID/Info : Picture based subtitle format used on BDs/HD-DVDs
Duration : 2 h 1 min
Bit rate : 29.4 kb/s
Frame rate : 0.352 FPS
Count of elements : 2564
Stream size : 25.5 MiB (0%)
Language : Danish
Default : No
Forced : No
Original source medium : Blu-ray

Text #8
ID : 18
ID in the original source medium : 4771 (0x12A3)
Format : PGS
Muxing mode : zlib
Codec ID : S_HDMV/PGS
Codec ID/Info : Picture based subtitle format used on BDs/HD-DVDs
Duration : 2 h 1 min
Bit rate : 34.5 kb/s
Frame rate : 0.378 FPS
Count of elements : 2756
Stream size : 29.9 MiB (0%)
Language : Spanish
Default : No
Forced : No
Original source medium : Blu-ray

Text #9
ID : 19
ID in the original source medium : 4771 (0x12A3)
Format : PGS
Muxing mode : zlib
Codec ID : S_HDMV/PGS
Codec ID/Info : Picture based subtitle format used on BDs/HD-DVDs
Duration : 2 h 1 min
Bit rate : 494 b/s
Frame rate : 0.008 FPS
Count of elements : 58
Stream size : 440 KiB (0%)
Title : FORCED
Language : Spanish
Default : No
Forced : No
Original source medium : Blu-ray

Text #10
ID : 20
ID in the original source medium : 4772 (0x12A4)
Format : PGS
Muxing mode : zlib
Codec ID : S_HDMV/PGS
Codec ID/Info : Picture based subtitle format used on BDs/HD-DVDs
Duration : 2 h 1 min
Bit rate : 32.1 kb/s
Frame rate : 0.362 FPS
Count of elements : 2638
Stream size : 27.9 MiB (0%)
Language : Spanish
Default : No
Forced : No
Original source medium : Blu-ray

Text #11
ID : 21
ID in the original source medium : 4772 (0x12A4)
Format : PGS
Muxing mode : zlib
Codec ID : S_HDMV/PGS
Codec ID/Info : Picture based subtitle format used on BDs/HD-DVDs
Duration : 2 h 1 min
Bit rate : 422 b/s
Frame rate : 0.007 FPS
Count of elements : 50
Stream size : 376 KiB (0%)
Title : FORCED
Language : Spanish
Default : No
Forced : No
Original source medium : Blu-ray

Text #12
ID : 22
ID in the original source medium : 4773 (0x12A5)
Format : PGS
Muxing mode : zlib
Codec ID : S_HDMV/PGS
Codec ID/Info : Picture based subtitle format used on BDs/HD-DVDs
Duration : 2 h 1 min
Bit rate : 30.3 kb/s
Frame rate : 0.361 FPS
Count of elements : 2630
Stream size : 26.3 MiB (0%)
Language : French
Default : No
Forced : No
Original source medium : Blu-ray

Text #13
ID : 23
ID in the original source medium : 4773 (0x12A5)
Format : PGS
Muxing mode : zlib
Codec ID : S_HDMV/PGS
Codec ID/Info : Picture based subtitle format used on BDs/HD-DVDs
Duration : 2 h 1 min
Bit rate : 373 b/s
Frame rate : 0.007 FPS
Count of elements : 48
Stream size : 332 KiB (0%)
Title : FORCED
Language : French
Default : No
Forced : No
Original source medium : Blu-ray

Text #14
ID : 24
ID in the original source medium : 4774 (0x12A6)
Format : PGS
Muxing mode : zlib
Codec ID : S_HDMV/PGS
Codec ID/Info : Picture based subtitle format used on BDs/HD-DVDs
Duration : 2 h 1 min
Bit rate : 34.1 kb/s
Frame rate : 0.381 FPS
Count of elements : 2776
Stream size : 29.6 MiB (0%)
Language : French
Default : No
Forced : No
Original source medium : Blu-ray

Text #15
ID : 25
ID in the original source medium : 4774 (0x12A6)
Format : PGS
Muxing mode : zlib
Codec ID : S_HDMV/PGS
Codec ID/Info : Picture based subtitle format used on BDs/HD-DVDs
Duration : 2 h 1 min
Bit rate : 487 b/s
Frame rate : 0.007 FPS
Count of elements : 54
Stream size : 433 KiB (0%)
Title : FORCED
Language : French
Default : No
Forced : No
Original source medium : Blu-ray

Text #16
ID : 26
ID in the original source medium : 4775 (0x12A7)
Format : PGS
Muxing mode : zlib
Codec ID : S_HDMV/PGS
Codec ID/Info : Picture based subtitle format used on BDs/HD-DVDs
Duration : 2 h 1 min
Bit rate : 29.7 kb/s
Frame rate : 0.372 FPS
Count of elements : 2706
Stream size : 25.8 MiB (0%)
Language : Norwegian
Default : No
Forced : No
Original source medium : Blu-ray

Text #17
ID : 27
ID in the original source medium : 4776 (0x12A8)
Format : PGS
Muxing mode : zlib
Codec ID : S_HDMV/PGS
Codec ID/Info : Picture based subtitle format used on BDs/HD-DVDs
Duration : 2 h 1 min
Bit rate : 27.7 kb/s
Frame rate : 0.370 FPS
Count of elements : 2698
Stream size : 24.1 MiB (0%)
Language : Finnish
Default : No
Forced : No
Original source medium : Blu-ray

Text #18
ID : 28
ID in the original source medium : 4777 (0x12A9)
Format : PGS
Muxing mode : zlib
Codec ID : S_HDMV/PGS
Codec ID/Info : Picture based subtitle format used on BDs/HD-DVDs
Duration : 2 h 1 min
Bit rate : 30.2 kb/s
Frame rate : 0.349 FPS
Count of elements : 2542
Stream size : 26.3 MiB (0%)
Language : Swedish
Default : No
Forced : No
Original source medium : Blu-ray

Text #19
ID : 29
ID in the original source medium : 4778 (0x12AA)
Format : PGS
Muxing mode : zlib
Codec ID : S_HDMV/PGS
Codec ID/Info : Picture based subtitle format used on BDs/HD-DVDs
Duration : 2 h 2 min
Bit rate : 84.5 kb/s
Frame rate : 0.684 FPS
Count of elements : 5007
Stream size : 73.8 MiB (0%)
Title : COMMENTARY
Language : English
Default : No
Forced : No
Original source medium : Blu-ray

Text #20
ID : 30
ID in the original source medium : 4779 (0x12AB)
Format : PGS
Muxing mode : zlib
Codec ID : S_HDMV/PGS
Codec ID/Info : Picture based subtitle format used on BDs/HD-DVDs
Duration : 2 h 2 min
Bit rate : 56.3 kb/s
Frame rate : 0.623 FPS
Count of elements : 4567
Stream size : 49.2 MiB (0%)
Title : COMMENTARY
Language : Spanish
Default : No
Forced : No
Original source medium : Blu-ray

Text #21
ID : 31
ID in the original source medium : 4780 (0x12AC)
Format : PGS
Muxing mode : zlib
Codec ID : S_HDMV/PGS
Codec ID/Info : Picture based subtitle format used on BDs/HD-DVDs
Duration : 2 h 2 min
Bit rate : 65.7 kb/s
Frame rate : 0.603 FPS
Count of elements : 4423
Stream size : 57.4 MiB (0%)
Title : COMMENTARY
Language : Spanish
Default : No
Forced : No
Original source medium : Blu-ray

Text #22
ID : 32
ID in the original source medium : 4781 (0x12AD)
Format : PGS
Muxing mode : zlib
Codec ID : S_HDMV/PGS
Codec ID/Info : Picture based subtitle format used on BDs/HD-DVDs
Duration : 2 h 2 min
Bit rate : 57.1 kb/s
Frame rate : 0.676 FPS
Count of elements : 4955
Stream size : 49.9 MiB (0%)
Title : COMMENTARY
Language : French
Default : No
Forced : No
Original source medium : Blu-ray

Text #23
ID : 33
ID in the original source medium : 4782 (0x12AE)
Format : PGS
Muxing mode : zlib
Codec ID : S_HDMV/PGS
Codec ID/Info : Picture based subtitle format used on BDs/HD-DVDs
Duration : 2 h 2 min
Bit rate : 71.5 kb/s
Frame rate : 0.669 FPS
Count of elements : 4906
Stream size : 62.5 MiB (0%)
Title : COMMENTARY
Language : French
Default : No
Forced : No
Original source medium : Blu-ray

Menu
00:00:00.000 : en:Chapter 01
00:05:54.187 : en:Chapter 02
00:09:59.515 : en:Chapter 03
00:16:32.950 : en:Chapter 04
00:20:58.715 : en:Chapter 05
00:28:05.475 : en:Chapter 06
00:34:19.932 : en:Chapter 07
00:39:09.889 : en:Chapter 08
00:48:24.902 : en:Chapter 09
00:58:32.300 : en:Chapter 10
01:04:57.685 : en:Chapter 11
01:11:02.049 : en:Chapter 12
01:16:09.356 : en:Chapter 13
01:26:59.672 : en:Chapter 14
01:32:31.837 : en:Chapter 15
01:40:45.831 : en:Chapter 16
01:48:21.661 : en:Chapter 17
01:53:56.079 : en:Chapter 18

本帖子中包含更多资源

您需要 登录 才可以下载或查看,没有帐号?立即注册

x
回复

使用道具 举报

您需要登录后才可以回帖 登录 | 立即注册

本版积分规则

QQ|Archiver|手机版|小黑屋|原盘天堂 好多盘 点击这里给我发消息

GMT+8, 2022-8-10 04:18 , Processed in 0.064656 second(s), 25 queries .

Powered by Discuz! X3.4

Copyright © 2001-2021, Tencent Cloud.

快速回复 返回顶部 返回列表