请选择 进入手机版 | 继续访问电脑版
本站Q群713428235【盘盘多】已满,请新会员加原盘天堂新官方QQ群709708625【好多盘】,验证信息填写您在论坛的会员名,不填会员名的无法入群哈,进群后修改您的群名片名字为您在论坛的会员名,请务必修改,否则群成员多了不知道您是哪个会员。

原盘天堂

 找回密码
 立即注册
京东商城当当华为商城名牌时尚折扣网,一个新型的网上购物平台,我们每周为您精选3~4个国际知名品牌,商品折扣低至2折限时限量售卖,商品囊括时装、护肤品、箱包、皮具、配饰、香水等等,琳琅满目。亿格瑞A10硬盘播放器 苏宁易购
查看: 43|回复: 0

2d蓝光原盘bdmv 白象 英语原版 white.elephant.2022.1080p.bluray.avc.dts-hd.ma.5.1[21.81 GB]

[复制链接]

7075

主题

8089

帖子

134万

积分

管理员

Rank: 18Rank: 18Rank: 18Rank: 18Rank: 18

积分
1349889
发表于 7 天前 | 显示全部楼层 |阅读模式








◎译  名 白象
◎片  名 White Elephant
◎年  代 2022
◎产  地 美国
◎类  别 动作/惊悚/犯罪
◎语  言 英语
◎上映日期 2022-06-03(美国)
◎IMDb评分 4.4/10 from 3369 users
◎IMDb链接 https://www.imdb.com/title/tt14686544/
◎豆瓣评分 5.0/10 from 171 users
◎豆瓣链接 https://douban.com/subject/35474134/
◎片  长 92分钟
◎导  演 杰西·约翰逊 Jesse V. Johnson
◎编  剧 杰西·约翰逊 Jesse V. Johnson / 埃里克·马丁内斯 Erik Martinez
◎主  演 迈克尔·鲁克 Michael Rooker
      约翰·马尔科维奇 John Malkovich
      欧嘉·柯瑞兰寇 Olga Kurylenko
      布鲁斯·威利斯 Bruce Willis
      迈克尔·罗斯 Michael Rose
      瓦迪尔·德尔贝斯 Vadhir Derbez
      华金·蒙特斯 Joaquin Montes
      约瑟夫·坎农 Josef Cannon
      迈克尔·罗斯 Michael Rose

◎简  介

  
  An ex-marine enforcer must battle his conscience and code of honor when he is forced to do things for the mob.

      当一名前海军陆战队员被迫为黑帮做事时,他必须与自己的良心和荣誉准则作斗争。


DISC INFO:

Disc Title:     White.Elephant.2022.1080p.BluRay.AVC.DTS-HD.MA.5.1-iNTEGRUM
Disc Size:      23,413,318,974 bytes
Protection:     AACS
BDInfo:         0.7.5.9 (compatible layout created by DVDFab 12.0.8.0)

PLAYLIST REPORT:

Name:                   00020.MPLS  
Length:                 1:32:05.478 (h:m:s.ms)
Size:                   22,320,672,768 bytes
Total Bitrate:          32.32 Mbps

VIDEO:

Codec                   Bitrate             Description   
-----                   -------             -----------   
MPEG-4 AVC Video        26970 kbps          1080p / 23.976 fps / 16:9 / High Profile 4.1

AUDIO:

Codec                           Language        Bitrate         Description   
-----                           --------        -------         -----------   
DTS-HD Master Audio             English         3663 kbps       5.1 / 48 kHz / 3663 kbps / 24-bit (DTS Core: 5.1 / 48 kHz / 1509 kbps / 24-bit)

SUBTITLES:

Codec                           Language        Bitrate         Description   
-----                           --------        -------         -----------   
Presentation Graphics           English         20.866 kbps                    
Presentation Graphics           Spanish         15.53 kbps     


Video
ID : 1
ID in the original source medium : 4113 (0x1011)
Format : AVC
Format/Info : Advanced Video Codec
Format profile : [email protected]
Format settings : CABAC / 4 Ref Frames
Format settings, CABAC : Yes
Format settings, Reference frames : 4 frames
Codec ID : V_MPEG4/ISO/AVC
Duration : 1 h 32 min
Bit rate mode : Variable
Bit rate : 26.6 Mb/s
Maximum bit rate : 36.0 Mb/s
Width : 1 920 pixels
Height : 1 080 pixels
Display aspect ratio : 16:9
Frame rate mode : Constant
Frame rate : 23.976 (24000/1001) FPS
Color space : YUV
Chroma subsampling : 4:2:0
Bit depth : 8 bits
Scan type : Progressive
Bits/(Pixel*Frame) : 0.535
Stream size : 17.1 GiB (88%)
Language : English
Default : No
Forced : No
Original source medium : Blu-ray

Audio
ID : 2
ID in the original source medium : 4352 (0x1100)
Format : DTS XLL
Format/Info : Digital Theater Systems
Commercial name : DTS-HD Master Audio
Codec ID : A_DTS
Duration : 1 h 32 min
Bit rate mode : Variable
Bit rate : 3 663 kb/s
Channel(s) : 6 channels
Channel layout : C L R Ls Rs LFE
Sampling rate : 48.0 kHz
Frame rate : 93.750 FPS (512 SPF)
Bit depth : 24 bits
Compression mode : Lossless
Stream size : 2.36 GiB (12%)
Title : DTS-HD MA 5.1
Language : English
Default : Yes
Forced : No
Original source medium : Blu-ray

Text #1
ID : 3
Format : UTF-8
Codec ID : S_TEXT/UTF8
Codec ID/Info : UTF-8 Plain Text
Duration : 1 h 28 min
Bit rate : 45 b/s
Frame rate : 0.187 FPS
Count of elements : 989
Stream size : 29.6 KiB (0%)
Language : English
Default : Yes
Forced : No

Text #2
ID : 4
Format : UTF-8
Codec ID : S_TEXT/UTF8
Codec ID/Info : UTF-8 Plain Text
Duration : 1 h 30 min
Bit rate : 48 b/s
Frame rate : 0.215 FPS
Count of elements : 1172
Stream size : 32.3 KiB (0%)
Title : SDH
Language : English
Default : No
Forced : No

Text #3
ID : 5
ID in the original source medium : 4608 (0x1200)
Format : PGS
Muxing mode : zlib
Codec ID : S_HDMV/PGS
Codec ID/Info : Picture based subtitle format used on BDs/HD-DVDs
Duration : 1 h 31 min
Bit rate : 21.0 kb/s
Frame rate : 0.434 FPS
Count of elements : 2384
Stream size : 13.7 MiB (0%)
Language : English
Default : No
Forced : No
Original source medium : Blu-ray

Text #4
ID : 6
ID in the original source medium : 4609 (0x1201)
Format : PGS
Muxing mode : zlib
Codec ID : S_HDMV/PGS
Codec ID/Info : Picture based subtitle format used on BDs/HD-DVDs
Duration : 1 h 26 min
Bit rate : 16.6 kb/s
Frame rate : 0.345 FPS
Count of elements : 1784
Stream size : 10.2 MiB (0%)
Language : Spanish
Default : No
Forced : No
Original source medium : Blu-ray

Menu
00:00:00.000 : en:Chapter 00
00:13:35.648 : en:Chapter 01
00:27:55.131 : en:Chapter 02
00:40:48.529 : en:Chapter 03
00:53:39.674 : en:Chapter 04
01:04:10.137 : en:Chapter 05
01:13:30.447 : en:Chapter 06
01:27:17.106 : en:Chapter 07

本帖子中包含更多资源

您需要 登录 才可以下载或查看,没有帐号?立即注册

x
回复

使用道具 举报

您需要登录后才可以回帖 登录 | 立即注册

本版积分规则

QQ|Archiver|手机版|小黑屋|原盘天堂 好多盘 点击这里给我发消息

GMT+8, 2022-8-10 03:23 , Processed in 0.046073 second(s), 25 queries .

Powered by Discuz! X3.4

Copyright © 2001-2021, Tencent Cloud.

快速回复 返回顶部 返回列表