请选择 进入手机版 | 继续访问电脑版
本站Q群713428235【盘盘多】已满,请新会员加原盘天堂新官方QQ群709708625【好多盘】,验证信息填写您在论坛的会员名,不填会员名的无法入群哈,进群后修改您的群名片名字为您在论坛的会员名,请务必修改,否则群成员多了不知道您是哪个会员。

原盘天堂

 找回密码
 立即注册
京东商城当当华为商城名牌时尚折扣网,一个新型的网上购物平台,我们每周为您精选3~4个国际知名品牌,商品折扣低至2折限时限量售卖,商品囊括时装、护肤品、箱包、皮具、配饰、香水等等,琳琅满目。亿格瑞A10硬盘播放器 苏宁易购
查看: 29|回复: 0

2d蓝光原盘bdmv 红字 英语原版 the.scarlet.letter.1995.1080p.bluray.avc.dts-hd.ma.5.1[37.59 GB]

[复制链接]

7075

主题

8089

帖子

134万

积分

管理员

Rank: 18Rank: 18Rank: 18Rank: 18Rank: 18

积分
1349889
发表于 7 天前 | 显示全部楼层 |阅读模式








◎译  名 红字/红色禁恋
◎片  名 The Scarlet Letter
◎年  代 1995
◎产  地 美国
◎类  别 剧情/爱情
◎语  言 英语
◎上映日期 1995-10-13(美国)
◎IMDb评分 5.3/10 from 15418 users
◎IMDb链接 https://www.imdb.com/title/tt0114345/
◎豆瓣评分 7.4/10 from 6451 users
◎豆瓣链接 https://douban.com/subject/1301536/
◎片  长 135 分钟
◎导  演 罗兰·约菲 Roland Joffé
◎编  剧 纳撒尼尔·霍桑 Nathaniel Hawthorne / 道格拉斯·戴·斯图尔特 Douglas Day Stewart
◎主  演 黛米·摩尔 Demi Moore
      加里·奥德曼 Gary Oldman
      罗伯特·杜瓦尔 Robert Duvall
      Kristin Fairlie Kristin Fairlie
      罗伊·多特里斯 Roy Dotrice
      George Aguilar George Aguilar
      Scout LaRue Willis Scout LaRue Willis
      埃里克·施维克 Eric Schweig
      爱德华·哈德威克 Edward Hardwicke
      丹娜·爱薇 Dana Ivey
      罗伯特·普罗斯基 Robert Prosky
      琼·普莱怀特 Joan Plowright
      乔迪·梅 Jodhi May
      黛安·萨林格 Diane Salinger
      马尔科姆·斯托里 Malcolm Storry
      蒂姆·伍德沃德 Tim Woodward
      艾米·莱特 Amy Wright
      Tallulah Belle Willis Tallulah Belle Willis

◎简  介

  
  故事发生在17世纪。赫丝特(黛米·摩尔 Demi Moore 饰)离开丈夫,孤身一人来到马萨诸塞湾的英属殖民地定居。在这里开拓的英国人信仰坚定,恪守清规,赫丝特的一些举动在这压抑的殖民地环境下颇为引人注目。当地的牧师阿瑟(加里·奥德曼 Gary Oldman 饰)英俊而富有激情,赫丝特为他的神采深深吸引,两个性情相投的人很快陷入了危险的热恋。不久殖民地方面接到了赫丝特的医生丈夫被印第安人杀害的消息,本以为可以公开关系的一对恋人等到的却是东窗事发,赫丝特为保护阿瑟,拒绝供认通奸者,自此被投入监狱直至产下一名女婴,而阿瑟则在监狱外日日承受心灵的拷问……出狱后的赫丝特戴上了通奸者的耻辱标志,同时她大难不死的丈夫突然现身,誓要将通奸者揪出以发泄心中怒火……

DISC INFO:

Disc Title:     The.Scarlet.Letter.1995.COMPLETE.BLURAY-YAMG
Disc Size:      40,357,186,994 bytes
Protection:     AACS
BDInfo:         0.7.5.9 (compatible layout created by DVDFab 12.0.8.0)

PLAYLIST REPORT:

Name:                   00004.MPLS  
Length:                 2:15:35.293 (h:m:s.ms)
Size:                   39,689,803,776 bytes
Total Bitrate:          39.03 Mbps

VIDEO:

Codec                   Bitrate             Description   
-----                   -------             -----------   
MPEG-4 AVC Video        33012 kbps          1080p / 23.976 fps / 16:9 / High Profile 4.1

AUDIO:

Codec                           Language        Bitrate         Description   
-----                           --------        -------         -----------   
DTS-HD Master Audio             English         2051 kbps       5.1 / 48 kHz / 2051 kbps / 16-bit (DTS Core: 5.1 / 48 kHz / 1509 kbps / 16-bit)
DTS-HD Master Audio             English         1560 kbps       2.0 / 48 kHz / 1560 kbps / 16-bit (DTS Core: 2.0 / 48 kHz / 1509 kbps / 16-bit)
Dolby Digital Audio             English         192 kbps        2.0 / 48 kHz / 192 kbps

SUBTITLES:

Codec                           Language        Bitrate         Description   
-----                           --------        -------         -----------   
Presentation Graphics           English         21.991 kbps     

Video
ID : 1
ID in the original source medium : 4113 (0x1011)
Format : AVC
Format/Info : Advanced Video Codec
Format profile : [email protected]
Format settings : CABAC / 4 Ref Frames
Format settings, CABAC : Yes
Format settings, Reference frames : 4 frames
Codec ID : V_MPEG4/ISO/AVC
Duration : 2 h 15 min
Bit rate mode : Variable
Bit rate : 32.9 Mb/s
Maximum bit rate : 35.0 Mb/s
Width : 1 920 pixels
Height : 1 080 pixels
Display aspect ratio : 16:9
Frame rate mode : Constant
Frame rate : 23.976 (24000/1001) FPS
Color space : YUV
Chroma subsampling : 4:2:0
Bit depth : 8 bits
Scan type : Progressive
Bits/(Pixel*Frame) : 0.661
Stream size : 31.0 GiB (90%)
Language : English
Default : No
Forced : No
Original source medium : Blu-ray

Audio #1
ID : 2
ID in the original source medium : 4352 (0x1100)
Format : DTS XLL
Format/Info : Digital Theater Systems
Commercial name : DTS-HD Master Audio
Codec ID : A_DTS
Duration : 2 h 15 min
Bit rate mode : Variable
Bit rate : 2 051 kb/s
Channel(s) : 6 channels
Channel layout : C L R Ls Rs LFE
Sampling rate : 48.0 kHz
Frame rate : 93.750 FPS (512 SPF)
Bit depth : 16 bits
Compression mode : Lossless
Stream size : 1.94 GiB (6%)
Title : DTS-HD MA 5.1
Language : English
Default : Yes
Forced : No
Original source medium : Blu-ray

Audio #2
ID : 3
ID in the original source medium : 4353 (0x1101)
Format : DTS XLL
Format/Info : Digital Theater Systems
Commercial name : DTS-HD Master Audio
Codec ID : A_DTS
Duration : 2 h 15 min
Bit rate mode : Variable
Bit rate : 1 559 kb/s
Channel(s) : 2 channels
Channel layout : L R
Sampling rate : 48.0 kHz
Frame rate : 93.750 FPS (512 SPF)
Bit depth : 16 bits
Compression mode : Lossless
Stream size : 1.47 GiB (4%)
Title : DTS-HD MA 2.0
Language : English
Default : No
Forced : No
Original source medium : Blu-ray

Audio #3
ID : 4
ID in the original source medium : 4354 (0x1102)
Format : AC-3
Format/Info : Audio Coding 3
Commercial name : Dolby Digital
Codec ID : A_AC3
Duration : 2 h 15 min
Bit rate mode : Constant
Bit rate : 192 kb/s
Channel(s) : 2 channels
Channel layout : L R
Sampling rate : 48.0 kHz
Frame rate : 31.250 FPS (1536 SPF)
Compression mode : Lossy
Stream size : 186 MiB (0%)
Title : DD 2.0
Language : English
Service kind : Complete Main
Default : No
Forced : No
Original source medium : Blu-ray

Text #1
ID : 5
Format : UTF-8
Codec ID : S_TEXT/UTF8
Codec ID/Info : UTF-8 Plain Text
Duration : 2 h 8 min
Bit rate : 49 b/s
Frame rate : 0.173 FPS
Count of elements : 1332
Stream size : 46.7 KiB (0%)
Language : English
Default : Yes
Forced : No

Text #2
ID : 6
ID in the original source medium : 4608 (0x1200)
Format : PGS
Muxing mode : zlib
Codec ID : S_HDMV/PGS
Codec ID/Info : Picture based subtitle format used on BDs/HD-DVDs
Duration : 2 h 8 min
Bit rate : 23.1 kb/s
Frame rate : 0.350 FPS
Count of elements : 2706
Stream size : 21.3 MiB (0%)
Language : English
Default : No
Forced : No
Original source medium : Blu-ray

Menu
00:00:00.000 : en:Chapter 00
00:08:54.659 : en:Chapter 01
00:24:33.722 : en:Chapter 02
00:43:15.593 : en:Chapter 03
01:01:18.341 : en:Chapter 04
01:23:31.923 : en:Chapter 05
01:36:40.294 : en:Chapter 06
01:53:25.048 : en:Chapter 07

本帖子中包含更多资源

您需要 登录 才可以下载或查看,没有帐号?立即注册

x
回复

使用道具 举报

您需要登录后才可以回帖 登录 | 立即注册

本版积分规则

QQ|Archiver|手机版|小黑屋|原盘天堂 好多盘 点击这里给我发消息

GMT+8, 2022-8-10 03:25 , Processed in 0.059612 second(s), 24 queries .

Powered by Discuz! X3.4

Copyright © 2001-2021, Tencent Cloud.

快速回复 返回顶部 返回列表