请选择 进入手机版 | 继续访问电脑版
本站Q群713428235【盘盘多】已满,请新会员加原盘天堂新官方QQ群709708625【好多盘】,验证信息填写您在论坛的会员名,不填会员名的无法入群哈,进群后修改您的群名片名字为您在论坛的会员名,请务必修改,否则群成员多了不知道您是哪个会员。

原盘天堂

 找回密码
 立即注册
京东商城当当华为商城名牌时尚折扣网,一个新型的网上购物平台,我们每周为您精选3~4个国际知名品牌,商品折扣低至2折限时限量售卖,商品囊括时装、护肤品、箱包、皮具、配饰、香水等等,琳琅满目。亿格瑞A10硬盘播放器 苏宁易购
查看: 58|回复: 0

4k蓝光原盘bdmv 找到卡特 英语原版 get.carter.1971.2160p.bluray.hevc.lpcm.1.0[78.65 GB]

[复制链接]

7075

主题

8089

帖子

134万

积分

管理员

Rank: 18Rank: 18Rank: 18Rank: 18Rank: 18

积分
1349889
发表于 2022-8-1 08:07:31 | 显示全部楼层 |阅读模式








◎译  名 找到卡特/复仇威龙/黑街正义心/江湖大决斗/杀手卡特
◎片  名 Get Carter
◎年  代 1971
◎产  地 英国
◎类  别 剧情/惊悚/犯罪
◎语  言 英语
◎上映日期 1971-03-18
◎IMDb评分 7.4/10 from 33494 users
◎IMDb链接 https://www.imdb.com/title/tt0067128/
◎豆瓣评分 7.3/10 from 358 users
◎豆瓣链接 https://douban.com/subject/1306370/
◎片  长 112 分钟
◎导  演 迈克·霍奇斯 Mike Hodges
◎编  剧 迈克·霍奇斯 Mike Hodges / Ted Lewis Ted Lewis
◎主  演 迈克尔·凯恩 Michael Caine
      伊恩·亨德里 Ian Hendry
      布里特·艾克拉诺 Britt Ekland
      约翰·奥斯本 John Osborne
      Rosemarie Dunham Rosemarie Dunham
      伯纳德·赫普顿 Bernard Hepton
      Geraldine Moffat Geraldine Moffat
      乔治·休厄尔 George Sewell
      戈弗雷·奎格利 Godfrey Quigley
      Geraldine Sherman Geraldine Sherman
      格林·爱德华兹 Glynn Edwards
      托尼·贝克利 Tony Beckley
      特伦斯·里格比 Terence Rigby
      裴特拉·马克汉姆 Petra Markham
      布莱恩·莫斯利 Bryan Mosley
      Ben Aris Ben Aris
      John Bindon John Bindon
      艾伦·阿姆斯特朗 Alun Armstrong

◎简  介

  
  杰克-卡特(迈克尔凯恩饰)一直以为人讨债、做代理为生。他能力超群,总是喜欢一人独居。但当他的兄弟在一桩“意外事件”中遇难后,他回到了那个被他遗弃的“卡特”家----去偿还那永远也还不清的“债”,解开那萦绕在他心灵中的兄弟遇害之谜。
  
  对于杰克来说,回到西雅图的家是一次弥补过失的机会。他联系上了他兄弟的妻子格洛里亚(米兰达-理查森饰)和她十多岁的女儿多琳(雷切尔-利-库克饰)。她们对他的这一举动很感疑惑。但当他发现兄弟的死整个是个谋杀时,他回来的目的很快从赎罪转向了复仇。
  
  杰克终于与多琳达成了和解,多琳也开始帮他,带他深入到城里的那些阴暗角落,到一个充满了欺骗性、到处漂溢着虚假的世界。卡特曾想向那些罪恶伸张正义,但是他越深入了解到事件的真相,越对自己的动机开始怀疑。他非但没有复仇,反而起了宽仁之心,直到最终又开始了赎罪。

DISC INFO:

Disc Title:     Get.Carter.1971.COMPLETE.UHD.BLURAY-GUHZER
Disc Size:      84,452,810,374 bytes
Protection:     AACS2
Extras:         Ultra HD
BDInfo:         0.7.5.9 (compatible layout created by DVDFab 12.0.8.0)

PLAYLIST REPORT:

Name:                   00000.MPLS  
Length:                 1:51:37.833 (h:m:s.ms)
Size:                   83,220,645,888 bytes
Total Bitrate:          99.40 Mbps

(*) Indicates included stream hidden by this playlist.

VIDEO:

Codec                   Bitrate             Description   
-----                   -------             -----------   
MPEG-H HEVC Video       89652 kbps          2160p / 24 fps / 16:9 / Main 10 @ Level 5.1 @ High / 4:2:0 / 10 bits / 1000nits / HDR10 / BT.2020
* MPEG-H HEVC Video     79 kbps (0.09%)     1080p / 24 fps / 16:9 / Main 10 @ Level 5.1 @ High / 4:2:0 / 10 bits / 1000nits / Dolby Vision MEL / BT.2020

AUDIO:

Codec                           Language        Bitrate         Description   
-----                           --------        -------         -----------   
LPCM Audio                      English         1152 kbps       1.0 / 48 kHz / 1152 kbps / 24-bit
Dolby Digital Audio             English         192 kbps        2.0 / 48 kHz / 192 kbps
Dolby Digital Audio             English         192 kbps        2.0 / 48 kHz / 192 kbps
LPCM Audio                      Undetermined    1152 kbps       1.0 / 48 kHz / 1152 kbps / 24-bit
Dolby Digital Audio             English         192 kbps        2.0 / 48 kHz / 192 kbps

SUBTITLES:

Codec                           Language        Bitrate         Description   
-----                           --------        -------         -----------   
Presentation Graphics           English         24.299 kbps      


Video
ID : 1
ID in the original source medium : 4113 (0x1011)
Format : HEVC
Format/Info : High Efficiency Video Coding
Format profile : Main [email protected]@High
HDR format : Dolby Vision, Version 1.0, dvhe.07.06, BL+EL+RPU, Blu-ray compatible / SMPTE ST 2086, HDR10 compatible
Codec ID : V_MPEGH/ISO/HEVC
Duration : 1 h 51 min
Bit rate : 89.7 Mb/s
Width : 3 840 pixels
Height : 2 160 pixels
Display aspect ratio : 16:9
Frame rate mode : Constant
Frame rate : 24.000 FPS
Color space : YUV
Chroma subsampling : 4:2:0 (Type 2)
Bit depth : 10 bits
Bits/(Pixel*Frame) : 0.451
Stream size : 70.0 GiB (96%)
Language : English
Default : No
Forced : No
Color range : Limited
Color primaries : BT.2020
Transfer characteristics : PQ
Matrix coefficients : BT.2020 non-constant
Mastering display color primaries : BT.2020
Mastering display luminance : min: 0.0001 cd/m2, max: 1000 cd/m2
Original source medium : Blu-ray

Audio #1
ID : 2
ID in the original source medium : 4352 (0x1100)
Format : PCM
Format settings : Little / Signed
Codec ID : A_PCM/INT/LIT
Duration : 1 h 51 min
Bit rate mode : Constant
Bit rate : 1 152 kb/s
Channel(s) : 1 channel
Sampling rate : 48.0 kHz
Frame rate : 30.000 FPS (1600 SPF)
Bit depth : 24 bits
Stream size : 920 MiB (1%)
Title : LPCM 1.0
Language : English
Default : Yes
Forced : No
Original source medium : Blu-ray

Audio #2
ID : 3
Format : AC-3
Format/Info : Audio Coding 3
Commercial name : Dolby Digital
Codec ID : A_AC3
Duration : 1 h 51 min
Bit rate mode : Constant
Bit rate : 640 kb/s
Channel(s) : 1 channel
Channel layout : C
Sampling rate : 48.0 kHz
Frame rate : 31.250 FPS (1536 SPF)
Compression mode : Lossy
Stream size : 511 MiB (1%)
Title : DD 1.0
Language : English
Service kind : Complete Main
Default : No
Forced : No

Audio #3
ID : 4
ID in the original source medium : 4353 (0x1101)
Format : AC-3
Format/Info : Audio Coding 3
Commercial name : Dolby Digital
Codec ID : A_AC3
Duration : 1 h 51 min
Bit rate mode : Constant
Bit rate : 192 kb/s
Channel(s) : 2 channels
Channel layout : L R
Sampling rate : 48.0 kHz
Frame rate : 31.250 FPS (1536 SPF)
Compression mode : Lossy
Stream size : 153 MiB (0%)
Title : DD 2.0
Language : English
Service kind : Complete Main
Default : No
Forced : No
Original source medium : Blu-ray

Audio #4
ID : 5
ID in the original source medium : 4354 (0x1102)
Format : AC-3
Format/Info : Audio Coding 3
Commercial name : Dolby Digital
Codec ID : A_AC3
Duration : 1 h 51 min
Bit rate mode : Constant
Bit rate : 192 kb/s
Channel(s) : 2 channels
Channel layout : L R
Sampling rate : 48.0 kHz
Frame rate : 31.250 FPS (1536 SPF)
Compression mode : Lossy
Stream size : 153 MiB (0%)
Title : DD 2.0
Language : English
Service kind : Complete Main
Default : No
Forced : No
Original source medium : Blu-ray

Audio #5
ID : 6
ID in the original source medium : 4355 (0x1103)
Format : PCM
Format settings : Little / Signed
Codec ID : A_PCM/INT/LIT
Duration : 1 h 51 min
Bit rate mode : Constant
Bit rate : 1 152 kb/s
Channel(s) : 1 channel
Sampling rate : 48.0 kHz
Frame rate : 30.000 FPS (1600 SPF)
Bit depth : 24 bits
Stream size : 920 MiB (1%)
Title : LPCM 1.0
Default : No
Forced : No
Original source medium : Blu-ray

Audio #6
ID : 7
ID in the original source medium : 4356 (0x1104)
Format : AC-3
Format/Info : Audio Coding 3
Commercial name : Dolby Digital
Codec ID : A_AC3
Duration : 1 h 51 min
Bit rate mode : Constant
Bit rate : 192 kb/s
Channel(s) : 2 channels
Channel layout : L R
Sampling rate : 48.0 kHz
Frame rate : 31.250 FPS (1536 SPF)
Compression mode : Lossy
Stream size : 153 MiB (0%)
Title : DD 2.0
Language : English
Service kind : Complete Main
Default : No
Forced : No
Original source medium : Blu-ray

Text #1
ID : 8
Format : UTF-8
Codec ID : S_TEXT/UTF8
Codec ID/Info : UTF-8 Plain Text
Duration : 1 h 47 min
Bit rate : 37 b/s
Frame rate : 0.137 FPS
Count of elements : 886
Stream size : 29.8 KiB (0%)
Language : English
Default : Yes
Forced : No

Text #2
ID : 9
Format : UTF-8
Codec ID : S_TEXT/UTF8
Codec ID/Info : UTF-8 Plain Text
Duration : 1 h 50 min
Bit rate : 40 b/s
Frame rate : 0.148 FPS
Count of elements : 986
Stream size : 32.8 KiB (0%)
Title : SDH
Language : English
Default : No
Forced : No

Text #3
ID : 10
ID in the original source medium : 4768 (0x12A0)
Format : PGS
Muxing mode : zlib
Codec ID : S_HDMV/PGS
Codec ID/Info : Picture based subtitle format used on BDs/HD-DVDs
Duration : 1 h 50 min
Bit rate : 24.5 kb/s
Frame rate : 0.298 FPS
Count of elements : 1982
Stream size : 19.4 MiB (0%)
Language : English
Default : No
Forced : No
Original source medium : Blu-ray

Menu
00:00:00.000 : en:Chapter 01
00:08:41.375 : en:Chapter 02
00:18:56.666 : en:Chapter 03
00:25:08.833 : en:Chapter 04
00:37:37.708 : en:Chapter 05
00:44:39.208 : en:Chapter 06
00:53:30.416 : en:Chapter 07
01:01:39.125 : en:Chapter 08
01:14:30.750 : en:Chapter 09
01:23:32.250 : en:Chapter 10
01:34:25.416 : en:Chapter 11
01:41:54.833 : en:Chapter 12

本帖子中包含更多资源

您需要 登录 才可以下载或查看,没有帐号?立即注册

x
回复

使用道具 举报

您需要登录后才可以回帖 登录 | 立即注册

本版积分规则

QQ|Archiver|手机版|小黑屋|原盘天堂 好多盘 点击这里给我发消息

GMT+8, 2022-8-10 03:09 , Processed in 0.047353 second(s), 24 queries .

Powered by Discuz! X3.4

Copyright © 2001-2021, Tencent Cloud.

快速回复 返回顶部 返回列表