请选择 进入手机版 | 继续访问电脑版
本站Q群713428235【盘盘多】已满,请新会员加原盘天堂新官方QQ群709708625【好多盘】,验证信息填写您在论坛的会员名,不填会员名的无法入群哈,进群后修改您的群名片名字为您在论坛的会员名,请务必修改,否则群成员多了不知道您是哪个会员。

原盘天堂

 找回密码
 立即注册
京东商城当当华为商城名牌时尚折扣网,一个新型的网上购物平台,我们每周为您精选3~4个国际知名品牌,商品折扣低至2折限时限量售卖,商品囊括时装、护肤品、箱包、皮具、配饰、香水等等,琳琅满目。亿格瑞A10硬盘播放器 苏宁易购
查看: 42|回复: 0

4k蓝光原盘bdmv 比利小子 英语原版 the.kid.2019.2160p.bluray.hevc.sdr.dts-hd.ma.5.1[47.38 GB]

[复制链接]

7075

主题

8089

帖子

134万

积分

管理员

Rank: 18Rank: 18Rank: 18Rank: 18Rank: 18

积分
1349889
发表于 2022-7-31 22:00:05 | 显示全部楼层 |阅读模式








◎译  名 比利小子/小子
◎片  名 The Kid
◎年  代 2019
◎产  地 美国
◎类  别 剧情/传记/西部
◎语  言 英语
◎上映日期 2019-03-08(美国)
◎IMDb评分 5.9/10 from 8492 users
◎IMDb链接 https://www.imdb.com/title/tt4975920/
◎豆瓣评分 5.9/10 from 810 users
◎豆瓣链接 https://douban.com/subject/26959517/
◎片  长 100分钟
◎导  演 文森特·多诺费奥 Vincent D'Onofrio
◎编  剧 安德鲁·兰纳姆 Andrew Lanham
◎主  演 克里斯·帕拉特 Chris Pratt
      文森特·多诺费奥 Vincent D'Onofrio
      伊桑·霍克 Ethan Hawke
      莱拉·乔治 Leila George
      戴恩·德哈恩 Dane DeHaan
      亚当·鲍德温 Adam Baldwin
      基思·雅各 Keith Jardine
      泰特·弗莱彻 Tait Fletcher
      詹妮加布里埃尔 Jenny Gabrielle
      斯塔福德·道格拉斯 Stafford Douglas
      蕾切尔·德·拉·托尔 Rachel de la Torre
      J·内森·西蒙斯 J. Nathan Simmons
      保罗· 罗森布拉姆 Paul Rosenblum
      杰克·舒尔 Jake Schur

◎简  介

  
  男孩Rio(Jake Schur)被迫穿过美国西南部,试图从他暴虐(克里斯·帕拉特)的叔叔手中,救回他的姐姐Sara(莱拉·乔治)。另一边,著名的不法之徒比利小子(戴恩·德哈恩)正遭到警长派特·加勒特(伊桑·霍克)的追捕。
  
  Rio与这两人相遇,目睹了比例和警长之间关于逃跑、追捕、斗争的故事,并渐渐卷入其中。但最终,Rio要做出选择,他要成为哪种人,法外之徒还是正义代表?另外,他将如何从恶舅舅帕帕手中救下姐姐?

DISC INFO:

Disc Title:     The.Kid.2019.2160p.BluRay.HEVC.SDR.DTS-HD.MA.5.1-B0MBARDiERS
Disc Size:      50,876,343,140 bytes
Protection:     AACS2
Extras:         Ultra HD
BDInfo:         0.7.5.9 (compatible layout created by DVDFab 12.0.8.0)

PLAYLIST REPORT:

Name:                   00002.MPLS  
Length:                 1:39:56.740 (h:m:s.ms)
Size:                   49,144,934,400 bytes
Total Bitrate:          65.56 Mbps

VIDEO:

Codec                   Bitrate             Description   
-----                   -------             -----------   
MPEG-H HEVC Video       59000 kbps          2160p / 23.976 fps / 16:9 / Main 10 @ Level 5.1 @ High / 4:2:0 / 10 bits / SDR / BT.709

AUDIO:

Codec                           Language        Bitrate         Description   
-----                           --------        -------         -----------   
DTS-HD Master Audio             English         3473 kbps       5.1 / 48 kHz / 3473 kbps / 24-bit (DTS Core: 5.1 / 48 kHz / 1509 kbps / 24-bit)

SUBTITLES:

Codec                           Language        Bitrate         Description   
-----                           --------        -------         -----------   
Presentation Graphics           English         29.619 kbps                    
Presentation Graphics           Spanish         25.81 kbps      


Video
ID : 1
ID in the original source medium : 4113 (0x1011)
Format : HEVC
Format/Info : High Efficiency Video Coding
Format profile : Main [email protected]@High
Codec ID : V_MPEGH/ISO/HEVC
Duration : 1 h 39 min
Bit rate : 59.0 Mb/s
Width : 3 840 pixels
Height : 2 160 pixels
Display aspect ratio : 16:9
Frame rate mode : Constant
Frame rate : 23.976 (24000/1001) FPS
Color space : YUV
Chroma subsampling : 4:2:0 (Type 2)
Bit depth : 10 bits
Bits/(Pixel*Frame) : 0.297
Stream size : 41.2 GiB (93%)
Language : English
Default : No
Forced : No
Color range : Limited
Color primaries : BT.709
Transfer characteristics : BT.709
Matrix coefficients : BT.709
Original source medium : Blu-ray

Audio #1
ID : 2
ID in the original source medium : 4352 (0x1100)
Format : DTS XLL
Format/Info : Digital Theater Systems
Commercial name : DTS-HD Master Audio
Codec ID : A_DTS
Duration : 1 h 39 min
Bit rate mode : Variable
Bit rate : 3 473 kb/s
Channel(s) : 6 channels
Channel layout : C L R Ls Rs LFE
Sampling rate : 48.0 kHz
Frame rate : 93.750 FPS (512 SPF)
Bit depth : 24 bits
Compression mode : Lossless
Stream size : 2.42 GiB (6%)
Title : DTS-HD MA 5.1
Language : English
Default : Yes
Forced : No
Original source medium : Blu-ray

Audio #2
ID : 3
Format : AC-3
Format/Info : Audio Coding 3
Commercial name : Dolby Digital
Codec ID : A_AC3
Duration : 1 h 39 min
Bit rate mode : Constant
Bit rate : 640 kb/s
Channel(s) : 6 channels
Channel layout : L R C LFE Ls Rs
Sampling rate : 48.0 kHz
Frame rate : 31.250 FPS (1536 SPF)
Compression mode : Lossy
Stream size : 458 MiB (1%)
Title : DD 5.1
Language : English
Service kind : Complete Main
Default : No
Forced : No

Text #1
ID : 4
Format : UTF-8
Codec ID : S_TEXT/UTF8
Codec ID/Info : UTF-8 Plain Text
Duration : 1 h 36 min
Bit rate : 46 b/s
Frame rate : 0.171 FPS
Count of elements : 986
Stream size : 32.6 KiB (0%)
Language : English
Default : Yes
Forced : No

Text #2
ID : 5
Format : UTF-8
Codec ID : S_TEXT/UTF8
Codec ID/Info : UTF-8 Plain Text
Duration : 1 h 36 min
Bit rate : 49 b/s
Frame rate : 0.184 FPS
Count of elements : 1070
Stream size : 35.2 KiB (0%)
Title : SDH
Language : English
Default : No
Forced : No

Text #3
ID : 6
ID in the original source medium : 4608 (0x1200)
Format : PGS
Muxing mode : zlib
Codec ID : S_HDMV/PGS
Codec ID/Info : Picture based subtitle format used on BDs/HD-DVDs
Duration : 1 h 37 min
Bit rate : 30.5 kb/s
Frame rate : 0.376 FPS
Count of elements : 2194
Stream size : 21.2 MiB (0%)
Language : English
Default : No
Forced : No
Original source medium : Blu-ray

Text #4
ID : 7
ID in the original source medium : 4609 (0x1201)
Format : PGS
Muxing mode : zlib
Codec ID : S_HDMV/PGS
Codec ID/Info : Picture based subtitle format used on BDs/HD-DVDs
Duration : 1 h 38 min
Bit rate : 26.2 kb/s
Frame rate : 0.321 FPS
Count of elements : 1896
Stream size : 18.5 MiB (0%)
Language : Spanish
Default : No
Forced : No
Original source medium : Blu-ray

Menu
00:00:00.000 : en:Chapter 01
00:10:01.225 : en:Chapter 02
00:20:01.116 : en:Chapter 03
00:30:03.134 : en:Chapter 04
00:40:02.900 : en:Chapter 05
00:50:03.583 : en:Chapter 06
01:00:03.558 : en:Chapter 07
01:10:04.867 : en:Chapter 08
01:20:06.510 : en:Chapter 09
01:30:06.025 : en:Chapter 10
01:33:26.517 : en:Chapter 11

本帖子中包含更多资源

您需要 登录 才可以下载或查看,没有帐号?立即注册

x
回复

使用道具 举报

您需要登录后才可以回帖 登录 | 立即注册

本版积分规则

QQ|Archiver|手机版|小黑屋|原盘天堂 好多盘 点击这里给我发消息

GMT+8, 2022-8-10 04:12 , Processed in 0.087926 second(s), 24 queries .

Powered by Discuz! X3.4

Copyright © 2001-2021, Tencent Cloud.

快速回复 返回顶部 返回列表