请选择 进入手机版 | 继续访问电脑版
本站Q群713428235【盘盘多】已满,请新会员加原盘天堂新官方QQ群709708625【好多盘】,验证信息填写您在论坛的会员名,不填会员名的无法入群哈,进群后修改您的群名片名字为您在论坛的会员名,请务必修改,否则群成员多了不知道您是哪个会员。

原盘天堂

 找回密码
 立即注册
京东商城当当华为商城名牌时尚折扣网,一个新型的网上购物平台,我们每周为您精选3~4个国际知名品牌,商品折扣低至2折限时限量售卖,商品囊括时装、护肤品、箱包、皮具、配饰、香水等等,琳琅满目。亿格瑞A10硬盘播放器 苏宁易购
查看: 44|回复: 0

4k蓝光原盘bdmv 天地逃生 英语原版 gamer.2009.2160p.bluray.hevc.dts-hd.ma.5.1[65.24 GB]

[复制链接]

7075

主题

8089

帖子

134万

积分

管理员

Rank: 18Rank: 18Rank: 18Rank: 18Rank: 18

积分
1349889
发表于 2022-7-31 20:41:57 | 显示全部楼层 |阅读模式








◎译  名 天地逃生/公民游戏/极限游戏/游戏/游戏求生/游戏杀机/真人游戏
◎片  名 Gamer
◎年  代 2009
◎产  地 美国
◎类  别 动作/科幻/惊悚
◎语  言 英语
◎上映日期 2009-09-04(美国)/2010-03-17(中国大陆)
◎IMDb评分 5.7/10 from 134797 users
◎IMDb链接 https://www.imdb.com/title/tt1034032/
◎豆瓣评分 6.1/10 from 18842 users
◎豆瓣链接 https://douban.com/subject/2301706/
◎片  长 95 分钟
◎导  演 马克·耐沃尔代 Mark Neveldine / 布莱恩·泰勒 Brian Tyler / 布莱恩·泰勒 Brian Taylor
◎编  剧 马克·耐沃尔代 Mark Neveldine / 布莱恩·泰勒 Brian Tyler / 布莱恩·泰勒 Brian Taylor
◎主  演 杰拉德·巴特勒 Gerard Butler
      迈克尔·C·豪尔 Michael C. Hall
      卢达·克里斯 Ludacris
      安贝·瓦莱塔 Amber Valletta
      凯拉·塞吉维克 Kyra Sedgwick
      罗根·勒曼 Logan Lerman
      艾莉森·洛曼 Alison Lohman
      艾伦·余 Aaron Yoo
      泰瑞·克鲁斯 Terry Crews
      海莉·德里贝瑞 Hayley Derryberry
      杰伊·斯特凡 Jai Stefan
      布丽吉德·弗莱明 Brighid Fleming
      米洛·文堤米利亚 Milo Ventimiglia
      佐伊·贝尔 Zoe Bell

◎简  介

  
  在不远的未来,技术天才肯•卡斯特(Michael C. Hall 饰)发明了将指令细胞植入人脑的纳米技术,以此为基础,卡斯特开发了两款真人在线操控游戏——“社会”和“凶手”,其中“凶手”是将死刑犯们置入残酷的杀戮战场,由线下的玩家指挥他们作战。卡贝尔(Gerard Butler 饰)是凶手游戏中的一名常胜战士,目前已经从27场比赛中存活,而按照规则,只要他再胜利三次,就可以重获自由。
  
  一个反抗组织在暗中策划推翻富可敌国的卡斯特,他们找到卡贝尔在游戏中的线下配合者——少年西蒙(Gerard Butler 饰),并希望他放弃对卡贝尔的操控,因为后者即将面临卡斯特的阴谋暗算。此时的卡贝尔,成为了推翻卡斯特的关键力量……


DISC INFO:

Disc Title:     Gamer.2009.2160p.BluRay.HEVC.DTS-HD.MA.5.1-B0MBARDiERS
Disc Size:      70,053,781,920 bytes
Protection:     AACS2
Extras:         Ultra HD
BDInfo:         0.7.5.9 (compatible layout created by DVDFab 12.0.8.0)

PLAYLIST REPORT:

Name:                   00001.MPLS  
Length:                 1:34:44.720 (h:m:s.ms)
Size:                   47,062,241,280 bytes
Total Bitrate:          66.23 Mbps

VIDEO:

Codec                   Bitrate             Description   
-----                   -------             -----------   
MPEG-H HEVC Video       59000 kbps          2160p / 23.976 fps / 16:9 / Main 10 @ Level 5.1 @ High / 4:2:0 / 10 bits / SDR / BT.2020

AUDIO:

Codec                           Language        Bitrate         Description   
-----                           --------        -------         -----------   
DTS-HD Master Audio             English         3892 kbps       5.1 / 48 kHz / 3892 kbps / 24-bit (DTS Core: 5.1 / 48 kHz / 1509 kbps / 24-bit)
Dolby Digital Audio             English         192 kbps        2.0 / 48 kHz / 192 kbps

SUBTITLES:

Codec                           Language        Bitrate         Description   
-----                           --------        -------         -----------   
Presentation Graphics           English         26.718 kbps                    
Presentation Graphics           Spanish         19.654 kbps   


Video
ID : 1
ID in the original source medium : 4113 (0x1011)
Format : HEVC
Format/Info : High Efficiency Video Coding
Format profile : Main [email protected]@High
Codec ID : V_MPEGH/ISO/HEVC
Duration : 1 h 34 min
Bit rate : 59.0 Mb/s
Width : 3 840 pixels
Height : 2 160 pixels
Display aspect ratio : 16:9
Frame rate mode : Constant
Frame rate : 23.976 (24000/1001) FPS
Color space : YUV
Chroma subsampling : 4:2:0 (Type 2)
Bit depth : 10 bits
Bits/(Pixel*Frame) : 0.297
Stream size : 39.0 GiB (93%)
Language : English
Default : No
Forced : No
Color range : Limited
Color primaries : BT.2020
Transfer characteristics : BT.2020 (10-bit)
Matrix coefficients : BT.2020 non-constant
Original source medium : Blu-ray

Audio #1
ID : 2
ID in the original source medium : 4352 (0x1100)
Format : DTS XLL
Format/Info : Digital Theater Systems
Commercial name : DTS-HD Master Audio
Codec ID : A_DTS
Duration : 1 h 34 min
Bit rate mode : Variable
Bit rate : 3 892 kb/s
Channel(s) : 6 channels
Channel layout : C L R Ls Rs LFE
Sampling rate : 48.0 kHz
Frame rate : 93.750 FPS (512 SPF)
Bit depth : 24 bits
Compression mode : Lossless
Stream size : 2.58 GiB (6%)
Title : DTS-HD MA 5.1
Language : English
Default : Yes
Forced : No
Original source medium : Blu-ray

Audio #2
ID : 3
Format : AC-3
Format/Info : Audio Coding 3
Commercial name : Dolby Digital
Codec ID : A_AC3
Duration : 1 h 34 min
Bit rate mode : Constant
Bit rate : 640 kb/s
Channel(s) : 6 channels
Channel layout : L R C LFE Ls Rs
Sampling rate : 48.0 kHz
Frame rate : 31.250 FPS (1536 SPF)
Compression mode : Lossy
Stream size : 434 MiB (1%)
Title : DD 5.1
Language : English
Service kind : Complete Main
Default : No
Forced : No

Audio #3
ID : 4
ID in the original source medium : 4353 (0x1101)
Format : AC-3
Format/Info : Audio Coding 3
Commercial name : Dolby Digital
Codec ID : A_AC3
Duration : 1 h 34 min
Bit rate mode : Constant
Bit rate : 192 kb/s
Channel(s) : 2 channels
Channel layout : L R
Sampling rate : 48.0 kHz
Frame rate : 31.250 FPS (1536 SPF)
Compression mode : Lossy
Stream size : 130 MiB (0%)
Title : DD 2.0
Language : English
Service kind : Complete Main
Default : No
Forced : No
Original source medium : Blu-ray

Text #1
ID : 5
Format : UTF-8
Codec ID : S_TEXT/UTF8
Codec ID/Info : UTF-8 Plain Text
Duration : 1 h 21 min
Bit rate : 49 b/s
Frame rate : 0.162 FPS
Count of elements : 794
Stream size : 29.4 KiB (0%)
Language : English
Default : Yes
Forced : No

Text #2
ID : 6
Format : UTF-8
Codec ID : S_TEXT/UTF8
Codec ID/Info : UTF-8 Plain Text
Duration : 1 h 22 min
Bit rate : 53 b/s
Frame rate : 0.202 FPS
Count of elements : 1000
Stream size : 32.6 KiB (0%)
Title : SDH
Language : English
Default : No
Forced : No

Text #3
ID : 7
ID in the original source medium : 4608 (0x1200)
Format : PGS
Muxing mode : zlib
Codec ID : S_HDMV/PGS
Codec ID/Info : Picture based subtitle format used on BDs/HD-DVDs
Duration : 1 h 22 min
Bit rate : 30.6 kb/s
Frame rate : 0.410 FPS
Count of elements : 2036
Stream size : 18.1 MiB (0%)
Language : English
Default : No
Forced : No
Original source medium : Blu-ray

Text #4
ID : 8
ID in the original source medium : 4609 (0x1201)
Format : PGS
Muxing mode : zlib
Codec ID : S_HDMV/PGS
Codec ID/Info : Picture based subtitle format used on BDs/HD-DVDs
Duration : 1 h 24 min
Bit rate : 22.0 kb/s
Frame rate : 0.325 FPS
Count of elements : 1650
Stream size : 13.3 MiB (0%)
Language : Spanish
Default : No
Forced : No
Original source medium : Blu-ray

Menu
00:00:00.000 : en:Chapter 01
00:10:07.231 : en:Chapter 02
00:20:02.326 : en:Chapter 03
00:30:01.841 : en:Chapter 04
00:40:02.691 : en:Chapter 05
00:50:07.045 : en:Chapter 06
01:00:04.058 : en:Chapter 07
01:10:04.283 : en:Chapter 08
01:20:05.467 : en:Chapter 09
01:25:06.351 : en:Chapter 10

本帖子中包含更多资源

您需要 登录 才可以下载或查看,没有帐号?立即注册

x
回复

使用道具 举报

您需要登录后才可以回帖 登录 | 立即注册

本版积分规则

QQ|Archiver|手机版|小黑屋|原盘天堂 好多盘 点击这里给我发消息

GMT+8, 2022-8-10 03:13 , Processed in 0.062490 second(s), 24 queries .

Powered by Discuz! X3.4

Copyright © 2001-2021, Tencent Cloud.

快速回复 返回顶部 返回列表