请选择 进入手机版 | 继续访问电脑版
本站Q群713428235【盘盘多】已满,请新会员加原盘天堂新官方QQ群709708625【好多盘】,验证信息填写您在论坛的会员名,不填会员名的无法入群哈,进群后修改您的群名片名字为您在论坛的会员名,请务必修改,否则群成员多了不知道您是哪个会员。

原盘天堂

 找回密码
 立即注册
京东商城当当华为商城名牌时尚折扣网,一个新型的网上购物平台,我们每周为您精选3~4个国际知名品牌,商品折扣低至2折限时限量售卖,商品囊括时装、护肤品、箱包、皮具、配饰、香水等等,琳琅满目。亿格瑞A10硬盘播放器 苏宁易购
查看: 40|回复: 0

4k蓝光原盘bdmv 原始恐惧 英语原版 primal.2019.2160p.bluray.hevc.dts-hd.ma.5.1[46.25 GB]

[复制链接]

7075

主题

8089

帖子

134万

积分

管理员

Rank: 18Rank: 18Rank: 18Rank: 18Rank: 18

积分
1349889
发表于 2022-7-31 19:54:21 | 显示全部楼层 |阅读模式








◎译  名 原始恐惧/野性獵殺(台)
◎片  名 Primal
◎年  代 2019
◎产  地 美国
◎类  别 动作
◎语  言 英语
◎上映日期 2019-11-08(美国)
◎IMDb评分 4.9/10 from 8407 users
◎IMDb链接 https://www.imdb.com/title/tt7394816/
◎豆瓣评分 5.4/10 from 1333 users
◎豆瓣链接 https://douban.com/subject/27139736/
◎片  长 97分钟
◎导  演 尼克·鲍威尔 Nick Powell
◎主  演 尼古拉斯·凯奇 Nicolas Cage
      法米克·詹森 Famke Janssen
      凯文·杜兰 Kevin Durand
      迈克尔·因佩里奥利 Michael Imperioli
      拉莫尼卡·加勒特 LaMonica Garrett
      雷·埃尔南德斯 Rey Hernandez
      汤姆·沃克 Tom Walker
      布赖恩·泰斯特 Brian Tester
      Braulio Castillo hijo Braulio Castillo hijo

◎简  介

  
  弗兰克(尼古拉斯·凯奇 Nicolas Cage 饰)是一名大型动物禁猎区的管理员,这一次,他参与了一项非常危险的任务,那就是护送一艘载满了珍奇而又危险的大型动物的船只,从亚马逊驶往希腊。船上除了野生动物外,还有更危险的生物存在,那就是老道而又狡猾的杀手劳夫乐(凯文·杜兰 Kevin Durand 饰)。
  
  果不其然,在行程中,劳夫乐甩掉了负责看管他的警察,放出了关在牢笼里的凶猛而又致命的猛兽,一时之间,正艘轮船陷入了混乱之中。身为负责人的弗兰克,不仅要保证野生动物们不被伤害,也肩负着船员们的性命,还要追捕危险的逃犯。

DISC INFO:

Disc Title:     Primal.2019.2160p.BluRay.HEVC.DTS-HD.MA.5.1-B0MBARDiERS
Disc Size:      49,662,186,892 bytes
Protection:     AACS2
Extras:         Ultra HD
BDInfo:         0.7.5.9 (compatible layout created by DVDFab 12.0.8.0)

PLAYLIST REPORT:

Name:                   00002.MPLS  
Length:                 1:36:49.428 (h:m:s.ms)
Size:                   47,876,634,624 bytes
Total Bitrate:          65.93 Mbps

VIDEO:

Codec                   Bitrate             Description   
-----                   -------             -----------   
MPEG-H HEVC Video       59000 kbps          2160p / 23.976 fps / 16:9 / Main 10 @ Level 5.1 @ High / 4:2:0 / 10 bits / HDR10 / BT.2020

AUDIO:

Codec                           Language        Bitrate         Description   
-----                           --------        -------         -----------   
DTS-HD Master Audio             English         3824 kbps       5.1 / 48 kHz / 3824 kbps / 24-bit (DTS Core: 5.1 / 48 kHz / 1509 kbps / 24-bit)

SUBTITLES:

Codec                           Language        Bitrate         Description   
-----                           --------        -------         -----------   
Presentation Graphics           English         31.334 kbps                    
Presentation Graphics           Spanish         25.019 kbps   


Video
ID : 1
ID in the original source medium : 4113 (0x1011)
Format : HEVC
Format/Info : High Efficiency Video Coding
Format profile : Main [email protected]@High
Codec ID : V_MPEGH/ISO/HEVC
Duration : 1 h 36 min
Bit rate : 59.0 Mb/s
Width : 3 840 pixels
Height : 2 160 pixels
Display aspect ratio : 16:9
Frame rate mode : Constant
Frame rate : 23.976 (24000/1001) FPS
Color space : YUV
Chroma subsampling : 4:2:0 (Type 2)
Bit depth : 10 bits
Bits/(Pixel*Frame) : 0.296
Stream size : 39.9 GiB (93%)
Language : English
Default : No
Forced : No
Color range : Limited
Color primaries : BT.2020
Transfer characteristics : PQ
Matrix coefficients : BT.2020 non-constant
Original source medium : Blu-ray

Audio #1
ID : 2
ID in the original source medium : 4352 (0x1100)
Format : DTS XLL
Format/Info : Digital Theater Systems
Commercial name : DTS-HD Master Audio
Codec ID : A_DTS
Duration : 1 h 36 min
Bit rate mode : Variable
Bit rate : 3 824 kb/s
Channel(s) : 6 channels
Channel layout : C L R Ls Rs LFE
Sampling rate : 48.0 kHz
Frame rate : 93.750 FPS (512 SPF)
Bit depth : 24 bits
Compression mode : Lossless
Stream size : 2.59 GiB (6%)
Title : DTS-HD MA 5.1
Language : English
Default : Yes
Forced : No
Original source medium : Blu-ray

Audio #2
ID : 3
Format : AC-3
Format/Info : Audio Coding 3
Commercial name : Dolby Digital
Codec ID : A_AC3
Duration : 1 h 36 min
Bit rate mode : Constant
Bit rate : 640 kb/s
Channel(s) : 6 channels
Channel layout : L R C LFE Ls Rs
Sampling rate : 48.0 kHz
Frame rate : 31.250 FPS (1536 SPF)
Compression mode : Lossy
Stream size : 443 MiB (1%)
Title : DD 5.1
Language : English
Service kind : Complete Main
Default : No
Forced : No

Text #1
ID : 4
Format : UTF-8
Codec ID : S_TEXT/UTF8
Codec ID/Info : UTF-8 Plain Text
Duration : 1 h 36 min
Bit rate : 47 b/s
Frame rate : 0.172 FPS
Count of elements : 1001
Stream size : 33.4 KiB (0%)
Language : English
Default : Yes
Forced : No

Text #2
ID : 5
Format : UTF-8
Codec ID : S_TEXT/UTF8
Codec ID/Info : UTF-8 Plain Text
Duration : 1 h 36 min
Bit rate : 52 b/s
Frame rate : 0.202 FPS
Count of elements : 1175
Stream size : 37.1 KiB (0%)
Title : SDH
Language : English
Default : No
Forced : No

Text #3
ID : 6
ID in the original source medium : 4768 (0x12A0)
Format : PGS
Muxing mode : zlib
Codec ID : S_HDMV/PGS
Codec ID/Info : Picture based subtitle format used on BDs/HD-DVDs
Duration : 1 h 36 min
Bit rate : 31.4 kb/s
Frame rate : 0.405 FPS
Count of elements : 2352
Stream size : 21.7 MiB (0%)
Language : English
Default : No
Forced : No
Original source medium : Blu-ray

Text #4
ID : 7
ID in the original source medium : 4769 (0x12A1)
Format : PGS
Muxing mode : zlib
Codec ID : S_HDMV/PGS
Codec ID/Info : Picture based subtitle format used on BDs/HD-DVDs
Duration : 1 h 31 min
Bit rate : 26.6 kb/s
Frame rate : 0.361 FPS
Count of elements : 1976
Stream size : 17.3 MiB (0%)
Language : Spanish
Default : No
Forced : No
Original source medium : Blu-ray

Menu
00:00:00.000 : en:Chapter 01
00:10:00.933 : en:Chapter 02
00:20:01.533 : en:Chapter 03
00:30:01.966 : en:Chapter 04
00:40:05.736 : en:Chapter 05
00:50:03.583 : en:Chapter 06
01:00:04.058 : en:Chapter 07
01:10:04.992 : en:Chapter 08
01:20:05.258 : en:Chapter 09
01:30:05.525 : en:Chapter 10
01:32:27.542 : en:Chapter 11

本帖子中包含更多资源

您需要 登录 才可以下载或查看,没有帐号?立即注册

x
回复

使用道具 举报

您需要登录后才可以回帖 登录 | 立即注册

本版积分规则

QQ|Archiver|手机版|小黑屋|原盘天堂 好多盘 点击这里给我发消息

GMT+8, 2022-8-10 04:16 , Processed in 0.046252 second(s), 24 queries .

Powered by Discuz! X3.4

Copyright © 2001-2021, Tencent Cloud.

快速回复 返回顶部 返回列表