请选择 进入手机版 | 继续访问电脑版
本站Q群713428235【盘盘多】已满,请新会员加原盘天堂新官方QQ群709708625【好多盘】,验证信息填写您在论坛的会员名,不填会员名的无法入群哈,进群后修改您的群名片名字为您在论坛的会员名,请务必修改,否则群成员多了不知道您是哪个会员。

原盘天堂

 找回密码
 立即注册
京东商城当当华为商城名牌时尚折扣网,一个新型的网上购物平台,我们每周为您精选3~4个国际知名品牌,商品折扣低至2折限时限量售卖,商品囊括时装、护肤品、箱包、皮具、配饰、香水等等,琳琅满目。亿格瑞A10硬盘播放器 苏宁易购
查看: 72|回复: 0

2d蓝光原盘bdmv 周末惊魂 英语原版 mid.century.2022.1080p.bluray.avc.dts-hd.ma.5.1[22.39 GB]

[复制链接]

7075

主题

8089

帖子

134万

积分

管理员

Rank: 18Rank: 18Rank: 18Rank: 18Rank: 18

积分
1349889
发表于 2022-7-26 23:38:21 | 显示全部楼层 |阅读模式






◎译  名 周末惊魂
◎片  名 Mid-Century
◎年  代 2022
◎产  地 美国
◎类  别 剧情/悬疑/惊悚
◎语  言 英语
◎上映日期 2022-06-17(美国)
◎IMDb评分 3.3/10 from 312 users
◎IMDb链接 https://www.imdb.com/title/tt6821198/
◎豆瓣评分 /10 from 0 users
◎豆瓣链接 https://douban.com/subject/35627579/
◎片  长 105分钟
◎导  演 索尼娅·奥·哈拉 Sonja O'Hara
◎主  演 布鲁斯·邓恩 Bruce Dern
      史蒂芬·朗 Stephen Lang
      夏恩·韦斯特 Shane West
      凡妮莎·威廉斯 Vanessa Williams
      丹尼尔V·格拉劳 Daniel V. Graulau
      莎拉·海伊 Sarah Hay
      比尔·乔特 Bill Chott
      索尼娅·奥·哈拉 Sonja O'Hara

◎简  介

  
  当丈夫发现房主是一个精神病患者,后院里藏着妻子的秘密和设计时,丈夫和妻子在一个世纪中期的现代度假租房里度过的周末变得非常危险。


DISC INFO:

Disc Title:     Mid.Century.2022.1080p.BluRay.AVC.DTS-HD.MA.5.1-FGT
Disc Size:      24,037,978,898 bytes
Protection:     AACS
Extras:         BD-Java
BDInfo:         0.7.5.9 (compatible layout created by DVDFab 12.0.7.8)

PLAYLIST REPORT:

Name:                   00001.MPLS  
Length:                 1:45:06.300 (h:m:s.ms)
Size:                   23,022,323,712 bytes
Total Bitrate:          29.21 Mbps

VIDEO:

Codec                   Bitrate             Description   
-----                   -------             -----------   
MPEG-4 AVC Video        23988 kbps          1080p / 23.976 fps / 16:9 / High Profile 4.1

AUDIO:

Codec                           Language        Bitrate         Description   
-----                           --------        -------         -----------   
DTS-HD Master Audio             English         3397 kbps       5.1 / 48 kHz / 3397 kbps / 24-bit (DTS Core: 5.1 / 48 kHz / 1509 kbps / 24-bit)
Dolby Digital Audio             English         192 kbps        2.0 / 48 kHz / 192 kbps

SUBTITLES:

Codec                           Language        Bitrate         Description   
-----                           --------        -------         -----------   
Presentation Graphics           English         26.735 kbps                    
Presentation Graphics           Spanish         22.275 kbps                    
Presentation Graphics           French          21.362 kbps   


Video
ID : 1
ID in the original source medium : 4113 (0x1011)
Format : AVC
Format/Info : Advanced Video Codec
Format profile : [email protected]
Format settings : CABAC / 4 Ref Frames
Format settings, CABAC : Yes
Format settings, Reference frames : 4 frames
Codec ID : V_MPEG4/ISO/AVC
Duration : 1 h 45 min
Bit rate mode : Variable
Bit rate : 24.0 Mb/s
Maximum bit rate : 35.0 Mb/s
Width : 1 920 pixels
Height : 1 080 pixels
Display aspect ratio : 16:9
Frame rate mode : Constant
Frame rate : 23.976 (24000/1001) FPS
Standard : NTSC
Color space : YUV
Chroma subsampling : 4:2:0
Bit depth : 8 bits
Scan type : Progressive
Bits/(Pixel*Frame) : 0.482
Stream size : 17.6 GiB (87%)
Language : English
Default : No
Forced : No
Color range : Limited
Color primaries : BT.709
Transfer characteristics : BT.709
Matrix coefficients : BT.709
Original source medium : Blu-ray

Audio #1
ID : 2
ID in the original source medium : 4352 (0x1100)
Format : DTS XLL
Format/Info : Digital Theater Systems
Commercial name : DTS-HD Master Audio
Codec ID : A_DTS
Duration : 1 h 45 min
Bit rate mode : Variable
Bit rate : 3 397 kb/s
Channel(s) : 6 channels
Channel layout : C L R Ls Rs LFE
Sampling rate : 48.0 kHz
Frame rate : 93.750 FPS (512 SPF)
Bit depth : 24 bits
Compression mode : Lossless
Stream size : 2.49 GiB (12%)
Title : DTS-HD MA 5.1
Language : English
Default : Yes
Forced : No
Original source medium : Blu-ray

Audio #2
ID : 3
ID in the original source medium : 4353 (0x1101)
Format : AC-3
Format/Info : Audio Coding 3
Commercial name : Dolby Digital
Codec ID : A_AC3
Duration : 1 h 45 min
Bit rate mode : Constant
Bit rate : 192 kb/s
Channel(s) : 2 channels
Channel layout : L R
Sampling rate : 48.0 kHz
Frame rate : 31.250 FPS (1536 SPF)
Compression mode : Lossy
Delay relative to video : 1 s 1 ms
Stream size : 144 MiB (1%)
Title : DD 2.0
Language : English
Service kind : Complete Main
Default : No
Forced : No
Original source medium : Blu-ray

Text #1
ID : 4
Format : UTF-8
Codec ID : S_TEXT/UTF8
Codec ID/Info : UTF-8 Plain Text
Duration : 1 h 39 min
Bit rate : 37 b/s
Frame rate : 0.149 FPS
Count of elements : 895
Stream size : 27.2 KiB (0%)
Language : English
Default : Yes
Forced : No

Text #2
ID : 5
Format : UTF-8
Codec ID : S_TEXT/UTF8
Codec ID/Info : UTF-8 Plain Text
Duration : 1 h 41 min
Bit rate : 43 b/s
Frame rate : 0.185 FPS
Count of elements : 1125
Stream size : 32.4 KiB (0%)
Title : SDH
Language : English
Default : No
Forced : No

Text #3
ID : 6
ID in the original source medium : 4608 (0x1200)
Format : PGS
Muxing mode : zlib
Codec ID : S_HDMV/PGS
Codec ID/Info : Picture based subtitle format used on BDs/HD-DVDs
Duration : 1 h 41 min
Bit rate : 27.7 kb/s
Frame rate : 0.377 FPS
Count of elements : 2290
Stream size : 20.1 MiB (0%)
Language : English
Default : No
Forced : No
Original source medium : Blu-ray

Text #4
ID : 7
ID in the original source medium : 4609 (0x1201)
Format : PGS
Muxing mode : zlib
Codec ID : S_HDMV/PGS
Codec ID/Info : Picture based subtitle format used on BDs/HD-DVDs
Duration : 1 h 43 min
Bit rate : 22.6 kb/s
Frame rate : 0.285 FPS
Count of elements : 1778
Stream size : 16.7 MiB (0%)
Language : Spanish
Default : No
Forced : No
Original source medium : Blu-ray

Text #5
ID : 8
ID in the original source medium : 4610 (0x1202)
Format : PGS
Muxing mode : zlib
Codec ID : S_HDMV/PGS
Codec ID/Info : Picture based subtitle format used on BDs/HD-DVDs
Duration : 1 h 43 min
Bit rate : 21.6 kb/s
Frame rate : 0.276 FPS
Count of elements : 1716
Stream size : 16.1 MiB (0%)
Language : French
Default : No
Forced : No
Original source medium : Blu-ray

Menu
00:00:00.000 : en:Chapter 01
00:06:48.199 : en:Chapter 02
00:15:59.708 : en:Chapter 03
00:23:57.269 : en:Chapter 04
00:27:28.647 : en:Chapter 05
00:33:26.713 : en:Chapter 06
00:40:54.452 : en:Chapter 07
00:48:40.709 : en:Chapter 08
00:55:16.313 : en:Chapter 09
01:05:23.920 : en:Chapter 10
01:12:45.194 : en:Chapter 11
01:18:36.545 : en:Chapter 12
01:25:48.017 : en:Chapter 13
01:29:55.390 : en:Chapter 14
01:33:28.603 : en:Chapter 15
01:40:42.953 : en:Chapter 16

本帖子中包含更多资源

您需要 登录 才可以下载或查看,没有帐号?立即注册

x
回复

使用道具 举报

您需要登录后才可以回帖 登录 | 立即注册

本版积分规则

QQ|Archiver|手机版|小黑屋|原盘天堂 好多盘 点击这里给我发消息

GMT+8, 2022-8-10 03:01 , Processed in 0.057567 second(s), 25 queries .

Powered by Discuz! X3.4

Copyright © 2001-2021, Tencent Cloud.

快速回复 返回顶部 返回列表