请选择 进入手机版 | 继续访问电脑版
本站Q群713428235【盘盘多】已满,请新会员加原盘天堂新官方QQ群709708625【好多盘】,验证信息填写您在论坛的会员名,不填会员名的无法入群哈,进群后修改您的群名片名字为您在论坛的会员名,请务必修改,否则群成员多了不知道您是哪个会员。

原盘天堂

 找回密码
 立即注册
京东商城当当华为商城名牌时尚折扣网,一个新型的网上购物平台,我们每周为您精选3~4个国际知名品牌,商品折扣低至2折限时限量售卖,商品囊括时装、护肤品、箱包、皮具、配饰、香水等等,琳琅满目。亿格瑞A10硬盘播放器 苏宁易购
查看: 51|回复: 0

2d蓝光原盘bdmv 上帝的使者 重制版 英语原版 the.message.1976.remastered.1080p.bluray.avc.dts-hd.ma.5.1[43.2 GB]

[复制链接]

7075

主题

8089

帖子

134万

积分

管理员

Rank: 18Rank: 18Rank: 18Rank: 18Rank: 18

积分
1349889
发表于 2022-7-25 09:10:23 | 显示全部楼层 |阅读模式








◎译  名 上帝的使者/迈哈麦德:上帝的使者/上帝的使者:伊斯兰的故事/上帝的使者穆罕默德/使命/Mohammad: Messenger of God/The Message
◎片  名 الرسالة
◎年  代 1976
◎产  地 英国/黎巴嫩/利比亚/科威特/摩洛哥
◎类  别 剧情/传记/历史/战争
◎语  言 英语/阿拉伯语
◎上映日期 1976-07-30(英国)
◎IMDb评分 8.1/10 from 47392 users
◎IMDb链接 https://www.imdb.com/title/tt0074896/
◎豆瓣评分 7.7/10 from 774 users
◎豆瓣链接 https://douban.com/subject/1294339/
◎片  长 177 分钟
◎导  演 穆斯塔法·阿卡德 Moustapha Akkad
◎主  演 安东尼·奎恩 Anthony Quinn
      艾琳·帕帕斯 Irene Papas
      迈克尔·安萨拉 Michael Ansara
      约翰尼·塞卡 Johnny Sekka
      迈克尔·福瑞斯特 Michael Forest
      达米安·托马斯 Damien Thomas
      安德鲁·莫瑞尔 André Morell
      马丁·本森 Martin Benson
      罗伯特·布朗 Robert Brown
      罗莎莉·克拉切利 Rosalie Crutchley
      布鲁诺·巴纳比 Bruno Barnabe
      内维尔·杰森 Neville Jason
      约翰·贝内特 John Bennett
      唐纳德·伯顿 Donald Burton
      厄尔·卡梅伦 Earl Cameron
      尼古拉斯·阿米尔 Nicolas Amer
      加里克·哈根 Garrick Hagon

◎简  介

  
  加麦,七世纪,穆罕默德与城市的强权者们斗争着,他揭露他们的专横,以及它造成的疾病-奴隶制,暴力,酗酒,特别是,穆罕默德和他的信徒们鼓励人们忘却旧偶像,只崇拜唯一的真主,他们的对手毫不犹豫的迫害并折磨他们的近亲。然而,和平的穆斯林们明白,该为尊重自己的正义而奋战…
  

◎获奖情况

  第50届奥斯卡金像奖 (1978)
  最佳原创配乐(提名) 莫里斯·雅尔

DISC INFO:

Disc Title:     The.Message.1976.REMASTERED.1080p.BluRay.AVC.DTS-HD.MA.5.1-iNTEGRUM
Disc Size:      46,387,949,989 bytes
Protection:     AACS
BDInfo:         0.7.5.9 (compatible layout created by DVDFab 12.0.7.8)

PLAYLIST REPORT:

Name:                   00002.MPLS  
Length:                 2:58:18.666 (h:m:s.ms)
Size:                   36,796,723,200 bytes
Total Bitrate:          27.51 Mbps

VIDEO:

Codec                   Bitrate             Description   
-----                   -------             -----------   
MPEG-4 AVC Video        19995 kbps          1080p / 24 fps / 16:9 / High Profile 4.1

AUDIO:

Codec                           Language        Bitrate         Description   
-----                           --------        -------         -----------   
DTS-HD Master Audio             English         3593 kbps       5.1 / 48 kHz / 3593 kbps / 24-bit (DTS Core: 5.1 / 48 kHz / 1509 kbps / 24-bit)
DTS-HD Master Audio             English         2001 kbps       2.0 / 48 kHz / 2001 kbps / 24-bit (DTS Core: 2.0 / 48 kHz / 1509 kbps / 24-bit)
Dolby Digital Audio             English         192 kbps        2.0 / 48 kHz / 192 kbps

SUBTITLES:

Codec                           Language        Bitrate         Description   
-----                           --------        -------         -----------   
Presentation Graphics           English         22.503 kbps   


DISC INFO:

Disc Title:     The.Message.1976.REMASTERED.1080p.BluRay.AVC.DTS-HD.MA.5.1-iNTEGRUM
Disc Size:      46,387,949,989 bytes
Protection:     AACS
BDInfo:         0.7.5.9 (compatible layout created by DVDFab 12.0.7.8)

PLAYLIST REPORT:

Name:                   00002.MPLS  
Length:                 2:58:18.666 (h:m:s.ms)
Size:                   36,796,723,200 bytes
Total Bitrate:          27.51 Mbps

VIDEO:

Codec                   Bitrate             Description   
-----                   -------             -----------   
MPEG-4 AVC Video        19995 kbps          1080p / 24 fps / 16:9 / High Profile 4.1

AUDIO:

Codec                           Language        Bitrate         Description   
-----                           --------        -------         -----------   
DTS-HD Master Audio             English         3593 kbps       5.1 / 48 kHz / 3593 kbps / 24-bit (DTS Core: 5.1 / 48 kHz / 1509 kbps / 24-bit)
DTS-HD Master Audio             English         2001 kbps       2.0 / 48 kHz / 2001 kbps / 24-bit (DTS Core: 2.0 / 48 kHz / 1509 kbps / 24-bit)
Dolby Digital Audio             English         192 kbps        2.0 / 48 kHz / 192 kbps

SUBTITLES:

Codec                           Language        Bitrate         Description   
-----                           --------        -------         -----------   
Presentation Graphics           English         22.503 kbps   

Video
ID : 1
ID in the original source medium : 4113 (0x1011)
Format : AVC
Format/Info : Advanced Video Codec
Format profile : [email protected]
Format settings : CABAC / 4 Ref Frames
Format settings, CABAC : Yes
Format settings, Reference frames : 4 frames
Codec ID : V_MPEG4/ISO/AVC
Duration : 2 h 58 min
Bit rate mode : Variable
Bit rate : 19.9 Mb/s
Maximum bit rate : 38.0 Mb/s
Width : 1 920 pixels
Height : 1 080 pixels
Display aspect ratio : 16:9
Frame rate mode : Constant
Frame rate : 24.000 FPS
Color space : YUV
Chroma subsampling : 4:2:0
Bit depth : 8 bits
Scan type : Progressive
Bits/(Pixel*Frame) : 0.400
Stream size : 24.8 GiB (77%)
Language : English
Default : No
Forced : No
Original source medium : Blu-ray

Audio #1
ID : 2
ID in the original source medium : 4352 (0x1100)
Format : DTS XLL
Format/Info : Digital Theater Systems
Commercial name : DTS-HD Master Audio
Codec ID : A_DTS
Duration : 2 h 58 min
Bit rate mode : Variable
Bit rate : 3 593 kb/s
Channel(s) : 6 channels
Channel layout : C L R Ls Rs LFE
Sampling rate : 48.0 kHz
Frame rate : 93.750 FPS (512 SPF)
Bit depth : 24 bits
Compression mode : Lossless
Stream size : 4.47 GiB (14%)
Title : DTS-HD MA 5.1
Language : English
Default : Yes
Forced : No
Original source medium : Blu-ray

Audio #2
ID : 3
ID in the original source medium : 4353 (0x1101)
Format : DTS XLL
Format/Info : Digital Theater Systems
Commercial name : DTS-HD Master Audio
Codec ID : A_DTS
Duration : 2 h 58 min
Bit rate mode : Variable
Bit rate : 2 001 kb/s
Channel(s) : 2 channels
Channel layout : L R
Sampling rate : 48.0 kHz
Frame rate : 93.750 FPS (512 SPF)
Bit depth : 24 bits
Compression mode : Lossless
Stream size : 2.49 GiB (8%)
Title : DTS-HD MA 2.0
Language : English
Default : No
Forced : No
Original source medium : Blu-ray

Audio #3
ID : 4
ID in the original source medium : 4354 (0x1102)
Format : AC-3
Format/Info : Audio Coding 3
Commercial name : Dolby Digital
Codec ID : A_AC3
Duration : 2 h 58 min
Bit rate mode : Constant
Bit rate : 192 kb/s
Channel(s) : 2 channels
Channel layout : L R
Sampling rate : 48.0 kHz
Frame rate : 31.250 FPS (1536 SPF)
Compression mode : Lossy
Stream size : 245 MiB (1%)
Title : DD 2.0
Language : English
Service kind : Complete Main
Default : No
Forced : No
Original source medium : Blu-ray

Text #1
ID : 5
Format : UTF-8
Codec ID : S_TEXT/UTF8
Codec ID/Info : UTF-8 Plain Text
Duration : 2 h 51 min
Bit rate : 35 b/s
Frame rate : 0.145 FPS
Count of elements : 1488
Stream size : 44.4 KiB (0%)
Language : English
Default : Yes
Forced : No

Text #2
ID : 6
Format : UTF-8
Codec ID : S_TEXT/UTF8
Codec ID/Info : UTF-8 Plain Text
Duration : 2 h 57 min
Bit rate : 39 b/s
Frame rate : 0.168 FPS
Count of elements : 1793
Stream size : 51.0 KiB (0%)
Title : SDH
Language : English
Default : No
Forced : No

Text #3
ID : 7
ID in the original source medium : 4608 (0x1200)
Format : PGS
Muxing mode : zlib
Codec ID : S_HDMV/PGS
Codec ID/Info : Picture based subtitle format used on BDs/HD-DVDs
Duration : 2 h 57 min
Bit rate : 22.6 kb/s
Frame rate : 0.339 FPS
Count of elements : 3616
Stream size : 28.7 MiB (0%)
Language : English
Default : No
Forced : No
Original source medium : Blu-ray

Menu
00:00:00.000 : en:Chapter 01
00:16:41.500 : en:Chapter 02
00:27:09.666 : en:Chapter 03
00:42:13.125 : en:Chapter 04
00:58:49.708 : en:Chapter 05
01:15:27.541 : en:Chapter 06
01:30:52.166 : en:Chapter 07
01:44:04.833 : en:Chapter 08
02:01:45.875 : en:Chapter 09
02:12:20.583 : en:Chapter 10
02:24:41.416 : en:Chapter 11
02:38:22.166 : en:Chapter 12

本帖子中包含更多资源

您需要 登录 才可以下载或查看,没有帐号?立即注册

x
回复

使用道具 举报

您需要登录后才可以回帖 登录 | 立即注册

本版积分规则

QQ|Archiver|手机版|小黑屋|原盘天堂 好多盘 点击这里给我发消息

GMT+8, 2022-8-10 03:08 , Processed in 0.046123 second(s), 24 queries .

Powered by Discuz! X3.4

Copyright © 2001-2021, Tencent Cloud.

快速回复 返回顶部 返回列表