请选择 进入手机版 | 继续访问电脑版
本站Q群713428235【盘盘多】已满,请新会员加原盘天堂新官方QQ群709708625【好多盘】,验证信息填写您在论坛的会员名,不填会员名的无法入群哈,进群后修改您的群名片名字为您在论坛的会员名,请务必修改,否则群成员多了不知道您是哪个会员。

原盘天堂

 找回密码
 立即注册
京东商城当当华为商城名牌时尚折扣网,一个新型的网上购物平台,我们每周为您精选3~4个国际知名品牌,商品折扣低至2折限时限量售卖,商品囊括时装、护肤品、箱包、皮具、配饰、香水等等,琳琅满目。亿格瑞A10硬盘播放器 苏宁易购
查看: 56|回复: 0

2d蓝光原盘bdmv 大地雄狮 重制版 英语原版 lion.of.the.desert.1980.remastered.1080p.bluray.avc.dts-hd.ma.5.1[43.95 GB]

[复制链接]

7075

主题

8089

帖子

134万

积分

管理员

Rank: 18Rank: 18Rank: 18Rank: 18Rank: 18

积分
1349889
发表于 2022-7-24 09:44:04 | 显示全部楼层 |阅读模式








◎译  名 大地雄狮/沙漠雄狮
◎片  名 Lion of the Desert
◎年  代 1980
◎产  地 美国/利比亚
◎类  别 剧情/传记/战争
◎语  言 英语
◎上映日期 1980-12-19(马德里首映)/1981-04-17(美国)
◎IMDb评分 8.2/10 from 15689 users
◎IMDb链接 https://www.imdb.com/title/tt0081059/
◎豆瓣评分 7.5/10 from 147 users
◎豆瓣链接 https://douban.com/subject/1306153/
◎片  长 173 分钟
◎导  演 穆斯塔法·阿卡德 Moustapha Akkad
◎编  剧 H.A.L.克雷格 H.A.L. Craig / 戴维·巴特勒 David Butler
◎主  演 安东尼·奎恩 Anthony Quinn
      奥列佛·里德 Oliver Reed
      艾琳·帕帕斯 Irene Papas
      雷夫·瓦朗 Raf Vallone
      罗德·斯泰格尔 Rod Steiger
      约翰·吉尔古德 John Gielgud
      卢西亚诺·卡蒂纳齐 Luciano Catenacci
      克劳迪奥·戈拉 Claudio Gora
      亚历克·曼戈 Alec Mango
      Adolfo Lastretti Adolfo Lastretti
      安德鲁·克尔 Andrew Keir
      加斯通·莫辛 Gastone Moschin
      彼得罗·托尔迪 Pietro Tordi
      埃文·索伦 Ewen Solon
      Mark Colleano Mark Colleano
      Eleonora Stathopoulou Eleonora Stathopoulou
      Takis Emmanuel Takis Emmanuel
      Piero Gerlini Piero Gerlini
      Mario Feliciani Mario Feliciani
      里诺·卡波利奇奥 Lino Capolicchio
      马里奥·阿多夫 Mario Adorf
      卢西亚诺·巴托利 Luciano Bartoli
      吉安弗兰科·巴拉 Gianfranco Barra
      Rodolfo Bigotti Rodolfo Bigotti
      克劳迪奥·卡西内利 Claudio Cassinelli
      罗伯特·布朗 Robert Brown
      斯凯·杜·蒙特 Sky du Mont
      菲利波·德·加拉 Filippo De Gara
      斯蒂法诺·帕特里兹 Stefano Patrizi

◎简  介

  
  内容描述在第二次世界大战之前,利比亚回教游击队领袖奥玛穆德在北非沙漠对抗墨索里尼的意大利占领军,终因寡不敌众而被意军杀害。但他的精神鼓舞着利比亚人们,他们坚持不懈地进行反抗,最终取得了独立。


DISC INFO:

Disc Title:     Lion.of.the.Desert.1980.REMASTERED.1080p.BluRay.AVC.DTS-HD.MA.5.1-iNTEGRUM
Disc Size:      47,191,220,399 bytes
Protection:     AACS
BDInfo:         0.7.5.9 (compatible layout created by DVDFab 12.0.7.8)

PLAYLIST REPORT:

Name:                   00002.MPLS  
Length:                 2:43:12.000 (h:m:s.ms)
Size:                   44,276,570,112 bytes
Total Bitrate:          36.17 Mbps

VIDEO:

Codec                   Bitrate             Description   
-----                   -------             -----------   
MPEG-4 AVC Video        27991 kbps          1080p / 24 fps / 16:9 / High Profile 4.1

AUDIO:

Codec                           Language        Bitrate         Description   
-----                           --------        -------         -----------   
DTS-HD Master Audio             English         3896 kbps       5.1 / 48 kHz / 3896 kbps / 24-bit (DTS Core: 5.1 / 48 kHz / 1509 kbps / 24-bit)
DTS-HD Master Audio             English         2006 kbps       2.0 / 48 kHz / 2006 kbps / 24-bit (DTS Core: 2.0 / 48 kHz / 1509 kbps / 24-bit)
Dolby Digital Audio             English         192 kbps        2.0 / 48 kHz / 192 kbps

SUBTITLES:

Codec                           Language        Bitrate         Description   
-----                           --------        -------         -----------   
Presentation Graphics           English         18.802 kbps   


Video
ID : 1
ID in the original source medium : 4113 (0x1011)
Format : AVC
Format/Info : Advanced Video Codec
Format profile : [email protected]
Format settings : CABAC / 4 Ref Frames
Format settings, CABAC : Yes
Format settings, Reference frames : 4 frames
Codec ID : V_MPEG4/ISO/AVC
Duration : 2 h 43 min
Bit rate mode : Variable
Bit rate : 27.9 Mb/s
Maximum bit rate : 38.0 Mb/s
Width : 1 920 pixels
Height : 1 080 pixels
Display aspect ratio : 16:9
Frame rate mode : Constant
Frame rate : 24.000 FPS
Color space : YUV
Chroma subsampling : 4:2:0
Bit depth : 8 bits
Scan type : Progressive
Bits/(Pixel*Frame) : 0.561
Stream size : 31.8 GiB (82%)
Language : English
Default : No
Forced : No
Original source medium : Blu-ray

Audio #1
ID : 2
ID in the original source medium : 4352 (0x1100)
Format : DTS XLL
Format/Info : Digital Theater Systems
Commercial name : DTS-HD Master Audio
Codec ID : A_DTS
Duration : 2 h 43 min
Bit rate mode : Variable
Bit rate : 3 896 kb/s
Channel(s) : 6 channels
Channel layout : C L R Ls Rs LFE
Sampling rate : 48.0 kHz
Frame rate : 93.750 FPS (512 SPF)
Bit depth : 24 bits
Compression mode : Lossless
Stream size : 4.44 GiB (11%)
Title : DTS-HD MA 5.1
Language : English
Default : Yes
Forced : No
Original source medium : Blu-ray

Audio #2
ID : 3
ID in the original source medium : 4353 (0x1101)
Format : DTS XLL
Format/Info : Digital Theater Systems
Commercial name : DTS-HD Master Audio
Codec ID : A_DTS
Duration : 2 h 43 min
Bit rate mode : Variable
Bit rate : 2 006 kb/s
Channel(s) : 2 channels
Channel layout : L R
Sampling rate : 48.0 kHz
Frame rate : 93.750 FPS (512 SPF)
Bit depth : 24 bits
Compression mode : Lossless
Stream size : 2.29 GiB (6%)
Title : DTS-HD MA 2.0
Language : English
Default : No
Forced : No
Original source medium : Blu-ray

Audio #3
ID : 4
ID in the original source medium : 4354 (0x1102)
Format : AC-3
Format/Info : Audio Coding 3
Commercial name : Dolby Digital
Codec ID : A_AC3
Duration : 2 h 43 min
Bit rate mode : Constant
Bit rate : 192 kb/s
Channel(s) : 2 channels
Channel layout : L R
Sampling rate : 48.0 kHz
Frame rate : 31.250 FPS (1536 SPF)
Compression mode : Lossy
Stream size : 224 MiB (0%)
Title : DD 2.0
Language : English
Service kind : Complete Main
Default : No
Forced : No
Original source medium : Blu-ray

Text #1
ID : 5
Format : UTF-8
Codec ID : S_TEXT/UTF8
Codec ID/Info : UTF-8 Plain Text
Duration : 2 h 38 min
Bit rate : 27 b/s
Frame rate : 0.119 FPS
Count of elements : 1126
Stream size : 31.8 KiB (0%)
Language : English
Default : Yes
Forced : No

Text #2
ID : 6
Format : UTF-8
Codec ID : S_TEXT/UTF8
Codec ID/Info : UTF-8 Plain Text
Duration : 2 h 41 min
Bit rate : 33 b/s
Frame rate : 0.155 FPS
Count of elements : 1501
Stream size : 39.2 KiB (0%)
Title : SDH
Language : English
Default : No
Forced : No

Text #3
ID : 7
ID in the original source medium : 4608 (0x1200)
Format : PGS
Muxing mode : zlib
Codec ID : S_HDMV/PGS
Codec ID/Info : Picture based subtitle format used on BDs/HD-DVDs
Duration : 2 h 41 min
Bit rate : 19.0 kb/s
Frame rate : 0.318 FPS
Count of elements : 3072
Stream size : 21.9 MiB (0%)
Language : English
Default : No
Forced : No
Original source medium : Blu-ray

Menu
00:00:00.000 : en:Chapter 01
00:15:42.708 : en:Chapter 02
00:28:53.250 : en:Chapter 03
00:44:28.708 : en:Chapter 04
01:00:20.708 : en:Chapter 05
01:16:15.791 : en:Chapter 06
01:30:01.666 : en:Chapter 07
01:45:24.458 : en:Chapter 08
01:55:56.875 : en:Chapter 09
02:06:18.208 : en:Chapter 10
02:14:48.125 : en:Chapter 11
02:28:27.375 : en:Chapter 12
02:43:08.583 : en:Chapter 13

本帖子中包含更多资源

您需要 登录 才可以下载或查看,没有帐号?立即注册

x
回复

使用道具 举报

您需要登录后才可以回帖 登录 | 立即注册

本版积分规则

QQ|Archiver|手机版|小黑屋|原盘天堂 好多盘 点击这里给我发消息

GMT+8, 2022-8-10 04:07 , Processed in 0.063782 second(s), 24 queries .

Powered by Discuz! X3.4

Copyright © 2001-2021, Tencent Cloud.

快速回复 返回顶部 返回列表