请选择 进入手机版 | 继续访问电脑版
本站Q群713428235【盘盘多】已满,请新会员加原盘天堂新官方QQ群709708625【好多盘】,验证信息填写您在论坛的会员名,不填会员名的无法入群哈,进群后修改您的群名片名字为您在论坛的会员名,请务必修改,否则群成员多了不知道您是哪个会员。

原盘天堂

 找回密码
 立即注册
京东商城当当华为商城名牌时尚折扣网,一个新型的网上购物平台,我们每周为您精选3~4个国际知名品牌,商品折扣低至2折限时限量售卖,商品囊括时装、护肤品、箱包、皮具、配饰、香水等等,琳琅满目。亿格瑞A10硬盘播放器 苏宁易购
查看: 71|回复: 0

2d蓝光原盘bdmv 音魂掠影 英语原版 ennio.2021.1080p.bluray.avc.dts-hd.ma.5.1[45.05 GB]

[复制链接]

7075

主题

8089

帖子

134万

积分

管理员

Rank: 18Rank: 18Rank: 18Rank: 18Rank: 18

积分
1349889
发表于 2022-7-24 09:32:26 | 显示全部楼层 |阅读模式






◎译  名 音魂掠影/50年一瞬的魔幻时刻/50年一瞬间的魔幻时刻/Ennio/Lo sguardo della musica/The Glance of Music
◎片  名 Ennio: The Maestro
◎年  代 2021
◎产  地 意大利
◎类  别 纪录片/音乐/传记
◎语  言 英语/意大利语
◎上映日期 2021-09-10(威尼斯电影节)/2022-02-17(意大利)
◎IMDb评分 8.4/10 from 1750 users
◎IMDb链接 https://www.imdb.com/title/tt3031654/
◎豆瓣评分 9.2/10 from 853 users
◎豆瓣链接 https://douban.com/subject/25735492/
◎片  长 90分钟
◎导  演 朱塞佩·托纳多雷 Giuseppe Tornatore
◎编  剧 朱塞佩·托纳多雷 Giuseppe Tornatore
◎主  演 恩尼奥·莫里康内 Ennio Morricone
      昆汀·塔伦蒂诺 Quentin Tarantino
      克林特·伊斯特伍德 Clint Eastwood
      约翰·威廉姆斯 John Williams
      汉斯·季默 Hans Zimmer
      奥利佛·斯通 Oliver Stone
      王家卫 Kar Wai Wong
      巴瑞·莱文森 Barry Levinson
      达里奥·阿基多 Dario Argento
      贝纳尔多·贝托鲁奇 Bernardo Bertolucci
      里娜·韦特缪勒 Lina Wertmüller
      昆西·琼斯 Quincy Jones
      朱塞佩·托纳多雷 Giuseppe Tornatore
      詹姆斯·海特菲尔德 James Hetfield
      布鲁斯·斯普林斯汀 Bruce Springsteen
      麦克·帕顿 Mike Patton
      罗兰·约菲 Roland Joffé
      马可·贝洛基奥 Marco Bellocchio
      卡洛·维尔多内 Carlo Verdone
      菲尔·乔安诺 Phil Joanou
      麦切尔·丹纳 Mychael Danna
      恩佐·卡斯特拉里 Enzo G. Castellari
      莉莉安娜·卡瓦尼 Liliana Cavani
      詹尼·莫兰迪 Gianni Morandi
      琼·贝兹 Joan Baez
      戴维·普特南 David Puttnam
      尼古拉·皮奥瓦尼 Nicola Piovani
      劳拉·普西妮 Laura Pausini
      罗贝托·费恩察 Roberto Faenza
      吉奥里亚诺·蒙塔尔多 Giuliano Montaldo
      维托里奥·塔维亚尼 Vittorio Taviani
      马里奥·卡亚诺 Mario Caiano
      保罗·西蒙侬 Paul Simonon
      弗兰科·皮埃尔赛特 Franco Piersanti
      吉达·布塔 Gilda Buttà
      Pat Metheny Pat Metheny
      西尔瓦诺·奥古斯特 Silvano Agosti
      Zucchero Zucchero
      Caterina Caselli Caterina Caselli
      Ornella Vanoni Ornella Vanoni
      Alessandro Alessandroni Alessandro Alessandroni
      Dulce Pontes Dulce Pontes
      Edoardo Vianello Edoardo Vianello
      Miranda Martino Miranda Martino
      Franco Migliacci Franco Migliacci
      Federico Savina Federico Savina

◎简  介

  
  影片由著名导演朱塞佩·托纳多雷编剧并执导,吉亚尼·罗素、王家卫等人任监制,聚焦意大利音乐大师恩尼奥·莫里康内的传记电影。影片历时5年,横跨欧美进行拍摄,将以叙事手法呈现世界级音乐大师莫里康内70多年职业生涯中鲜为人知的一面,探寻他在世界领域内与著名好友、同事之间的故事。
  

◎获奖情况

  第67届意大利大卫奖 (2022)
  青年大卫奖(提名) 朱塞佩·托纳多雷
  最佳影片(提名) 朱塞佩·托纳多雷
  最佳导演(提名) 朱塞佩·托纳多雷
  最佳剪辑 马西莫·夸各里安 / AnnalisaSchillaci
  最佳音效
  最佳纪录片 朱塞佩·托纳多雷

DISC INFO:

Disc Title:     Ennio.2021.1080p.BluRay.AVC.DTS-HD.MA.5.1-INCUBO
Disc Size:      48,370,740,714 bytes
Protection:     AACS
BDInfo:         0.7.5.9 (compatible layout created by DVDFab 12.0.7.8)

PLAYLIST REPORT:

Name:                   00000.MPLS  
Length:                 2:36:27.503 (h:m:s.ms)
Size:                   39,268,177,920 bytes
Total Bitrate:          33.46 Mbps

VIDEO:

Codec                   Bitrate             Description   
-----                   -------             -----------   
MPEG-4 AVC Video        28023 kbps          1080p / 23.976 fps / 16:9 / High Profile 4.1

AUDIO:

Codec                           Language        Bitrate         Description   
-----                           --------        -------         -----------   
DTS-HD Master Audio             English         1981 kbps       5.1 / 48 kHz / 1981 kbps / 16-bit (DTS Core: 5.1 / 48 kHz / 1509 kbps / 16-bit)
LPCM Audio                      English         1536 kbps       2.0 / 48 kHz / 1536 kbps / 16-bit


Video
ID : 1
ID in the original source medium : 4113 (0x1011)
Format : AVC
Format/Info : Advanced Video Codec
Format profile : [email protected]
Format settings : CABAC / 4 Ref Frames
Format settings, CABAC : Yes
Format settings, Reference frames : 4 frames
Codec ID : V_MPEG4/ISO/AVC
Duration : 2 h 36 min
Bit rate mode : Variable
Bit rate : 28.0 Mb/s
Maximum bit rate : 34.0 Mb/s
Width : 1 920 pixels
Height : 1 080 pixels
Display aspect ratio : 16:9
Frame rate mode : Constant
Frame rate : 23.976 (24000/1001) FPS
Color space : YUV
Chroma subsampling : 4:2:0
Bit depth : 8 bits
Scan type : Progressive
Bits/(Pixel*Frame) : 0.564
Stream size : 30.6 GiB (89%)
Language : English
Default : No
Forced : No
Color range : Limited
Color primaries : BT.709
Transfer characteristics : BT.709
Matrix coefficients : BT.709
Original source medium : Blu-ray

Audio #1
ID : 2
ID in the original source medium : 4352 (0x1100)
Format : DTS XLL
Format/Info : Digital Theater Systems
Commercial name : DTS-HD Master Audio
Codec ID : A_DTS
Duration : 2 h 36 min
Bit rate mode : Variable
Bit rate : 1 981 kb/s
Channel(s) : 6 channels
Channel layout : C L R Ls Rs LFE
Sampling rate : 48.0 kHz
Frame rate : 93.750 FPS (512 SPF)
Bit depth : 16 bits
Compression mode : Lossless
Stream size : 2.16 GiB (6%)
Title : DTS-HD MA 5.1
Language : English
Default : Yes
Forced : No
Original source medium : Blu-ray

Audio #2
ID : 3
ID in the original source medium : 4353 (0x1101)
Format : PCM
Format settings : Little / Signed
Codec ID : A_PCM/INT/LIT
Duration : 2 h 36 min
Bit rate mode : Constant
Bit rate : 1 536 kb/s
Channel(s) : 2 channels
Sampling rate : 48.0 kHz
Frame rate : 30.000 FPS (1600 SPF)
Bit depth : 16 bits
Stream size : 1.68 GiB (5%)
Title : DTS-HD MA 2.0
Language : English
Default : No
Forced : No
Original source medium : Blu-ray

Menu
00:00:00.000 : en:Chapter 01
00:13:26.180 : en:Chapter 02
00:21:21.029 : en:Chapter 03
00:31:55.163 : en:Chapter 04
00:42:31.298 : en:Chapter 05
01:01:41.114 : en:Chapter 06
01:17:22.179 : en:Chapter 07
01:29:07.008 : en:Chapter 08
01:40:59.553 : en:Chapter 09
01:53:49.113 : en:Chapter 10
02:03:54.093 : en:Chapter 11
02:24:29.827 : en:Chapter 12

本帖子中包含更多资源

您需要 登录 才可以下载或查看,没有帐号?立即注册

x
回复

使用道具 举报

您需要登录后才可以回帖 登录 | 立即注册

本版积分规则

QQ|Archiver|手机版|小黑屋|原盘天堂 好多盘 点击这里给我发消息

GMT+8, 2022-8-10 03:10 , Processed in 0.047194 second(s), 25 queries .

Powered by Discuz! X3.4

Copyright © 2001-2021, Tencent Cloud.

快速回复 返回顶部 返回列表