请选择 进入手机版 | 继续访问电脑版
本站Q群713428235【盘盘多】已满,请新会员加原盘天堂新官方QQ群709708625【好多盘】,验证信息填写您在论坛的会员名,不填会员名的无法入群哈,进群后修改您的群名片名字为您在论坛的会员名,请务必修改,否则群成员多了不知道您是哪个会员。

原盘天堂

 找回密码
 立即注册
京东商城当当华为商城名牌时尚折扣网,一个新型的网上购物平台,我们每周为您精选3~4个国际知名品牌,商品折扣低至2折限时限量售卖,商品囊括时装、护肤品、箱包、皮具、配饰、香水等等,琳琅满目。亿格瑞A10硬盘播放器 苏宁易购
查看: 51|回复: 1

2d蓝光原盘bdmv 蓝衣魔鬼 英语原版 devil.in.a.blue.dress.1995.criterion.1080p.bluray.avc.dts-hd.ma.5.1[43.53 GB]

[复制链接]

7075

主题

8089

帖子

134万

积分

管理员

Rank: 18Rank: 18Rank: 18Rank: 18Rank: 18

积分
1349889
发表于 2022-7-24 09:21:13 | 显示全部楼层 |阅读模式








◎译  名 蓝衣魔鬼/蓝魔鬼
◎片  名 Devil in a Blue Dress
◎年  代 1995
◎产  地 美国
◎类  别 剧情/悬疑/犯罪/黑色电影
◎语  言 英语
◎上映日期 1995-09-29(美国)
◎IMDb评分 6.7/10 from 20424 users
◎IMDb链接 https://www.imdb.com/title/tt0112857/
◎豆瓣评分 6.6/10 from 511 users
◎豆瓣链接 https://douban.com/subject/1298906/
◎片  长 102分钟
◎导  演 卡尔·弗兰克林 Carl Franklin
◎编  剧 卡尔·弗兰克林 Carl Franklin
◎主  演 丹泽尔·华盛顿 Denzel Washington
      汤姆·塞兹摩尔 Tom Sizemore
      詹妮弗·比尔斯 Jennifer Beals
      唐·钱德尔 Don Cheadle
      特里·金尼 Terry Kinney
      阿尔伯特·海尔 Albert Hall
      丽莎·妮可·卡森 Lisa Nicole Carson

◎简  介

  
  1948年,洛杉矶的经济突趋繁荣,满怀希望的军人伊斯退役后到洛杉矶寻找工作,满怀信心的他,以为像他这样出色的黑人在洛杉矶不难找到合适的位置,怎料好不容易才找到一份在机场内当技工的工作,但不久又被老板解雇,更被房东催收欠租。就在绝望边缘之际,他受聘于神秘男子狄维去找寻一个失踪女子黛芬,而伊斯也因此而堕进狄维的圈套,他也不知不觉间被牵涉到恐吓、谋杀、政治的纠缠之中。


DISC INFO:

Disc Title:     Devil.in.a.Blue.Dress.1995.CRITERION.1080p.BluRay.AVC.DTS-HD.MA.5.1-JUNGLIST
Disc Size:      46,741,942,032 bytes
Protection:     AACS
Extras:         BD-Java
BDInfo:         0.7.5.9 (compatible layout created by DVDFab 12.0.7.8)

PLAYLIST REPORT:

Name:                   00001.MPLS  
Length:                 1:41:30.667 (h:m:s.ms)
Size:                   31,593,535,488 bytes
Total Bitrate:          41.50 Mbps

VIDEO:

Codec                   Bitrate             Description   
-----                   -------             -----------   
MPEG-4 AVC Video        35580 kbps          1080p / 23.976 fps / 16:9 / High Profile 4.1

AUDIO:

Codec                           Language        Bitrate         Description   
-----                           --------        -------         -----------   
DTS-HD Master Audio             English         3593 kbps       5.1 / 48 kHz / 3593 kbps / 24-bit (DTS Core: 5.1 / 48 kHz / 1509 kbps / 24-bit)
Dolby Digital Audio             English         192 kbps        2.0 / 48 kHz / 192 kbps

SUBTITLES:

Codec                           Language        Bitrate         Description   
-----                           --------        -------         -----------   
Presentation Graphics           English         63.279 kbps  


Video
ID : 1
ID in the original source medium : 4113 (0x1011)
Format : AVC
Format/Info : Advanced Video Codec
Format profile : [email protected]
Format settings : CABAC / 4 Ref Frames
Format settings, CABAC : Yes
Format settings, Reference frames : 4 frames
Codec ID : V_MPEG4/ISO/AVC
Duration : 1 h 41 min
Bit rate mode : Variable
Bit rate : 35.4 Mb/s
Maximum bit rate : 37.0 Mb/s
Width : 1 920 pixels
Height : 1 080 pixels
Display aspect ratio : 16:9
Frame rate mode : Constant
Frame rate : 23.976 (24000/1001) FPS
Color space : YUV
Chroma subsampling : 4:2:0
Bit depth : 8 bits
Scan type : Progressive
Bits/(Pixel*Frame) : 0.711
Stream size : 25.1 GiB (90%)
Language : English
Default : No
Forced : No
Original source medium : Blu-ray

Audio #1
ID : 2
ID in the original source medium : 4352 (0x1100)
Format : DTS XLL
Format/Info : Digital Theater Systems
Commercial name : DTS-HD Master Audio
Codec ID : A_DTS
Duration : 1 h 41 min
Bit rate mode : Variable
Bit rate : 3 593 kb/s
Channel(s) : 6 channels
Channel layout : C L R Ls Rs LFE
Sampling rate : 48.0 kHz
Frame rate : 93.750 FPS (512 SPF)
Bit depth : 24 bits
Compression mode : Lossless
Stream size : 2.55 GiB (9%)
Title : DTS-HD MA 5.1
Language : English
Default : Yes
Forced : No
Original source medium : Blu-ray

Audio #2
ID : 3
ID in the original source medium : 4353 (0x1101)
Format : AC-3
Format/Info : Audio Coding 3
Commercial name : Dolby Digital
Codec ID : A_AC3
Duration : 1 h 41 min
Bit rate mode : Constant
Bit rate : 192 kb/s
Channel(s) : 2 channels
Channel layout : L R
Sampling rate : 48.0 kHz
Frame rate : 31.250 FPS (1536 SPF)
Compression mode : Lossy
Stream size : 139 MiB (0%)
Title : DD 2.0
Language : English
Service kind : Complete Main
Default : No
Forced : No
Original source medium : Blu-ray

Text #1
ID : 4
Format : UTF-8
Codec ID : S_TEXT/UTF8
Codec ID/Info : UTF-8 Plain Text
Duration : 1 h 40 min
Bit rate : 68 b/s
Frame rate : 0.218 FPS
Count of elements : 1311
Stream size : 50.4 KiB (0%)
Language : English
Default : Yes
Forced : No

Text #2
ID : 5
Format : UTF-8
Codec ID : S_TEXT/UTF8
Codec ID/Info : UTF-8 Plain Text
Duration : 1 h 40 min
Bit rate : 75 b/s
Frame rate : 0.243 FPS
Count of elements : 1462
Stream size : 55.5 KiB (0%)
Title : SDH
Language : English
Default : No
Forced : No

Text #3
ID : 6
ID in the original source medium : 4608 (0x1200)
Format : PGS
Muxing mode : zlib
Codec ID : S_HDMV/PGS
Codec ID/Info : Picture based subtitle format used on BDs/HD-DVDs
Duration : 1 h 40 min
Bit rate : 63.9 kb/s
Frame rate : 0.487 FPS
Count of elements : 2934
Stream size : 45.9 MiB (0%)
Language : English
Default : No
Forced : No
Original source medium : Blu-ray

Menu
00:00:00.000 : en:Chapter 01
00:03:27.582 : en:Chapter 02
00:11:29.730 : en:Chapter 03
00:23:01.046 : en:Chapter 04
00:28:29.958 : en:Chapter 05
00:35:20.076 : en:Chapter 06
00:44:44.264 : en:Chapter 07
00:51:48.355 : en:Chapter 08
01:03:06.157 : en:Chapter 09
01:14:23.000 : en:Chapter 10
01:21:54.242 : en:Chapter 11
01:30:46.899 : en:Chapter 12
01:38:06.714 : en:Chapter 13

本帖子中包含更多资源

您需要 登录 才可以下载或查看,没有帐号?立即注册

x
回复

使用道具 举报

0

主题

4

帖子

21

积分

新手上路

Rank: 1

积分
21
发表于 2022-7-29 19:26:54 | 显示全部楼层
感谢分享!
回复

使用道具 举报

您需要登录后才可以回帖 登录 | 立即注册

本版积分规则

QQ|Archiver|手机版|小黑屋|原盘天堂 好多盘 点击这里给我发消息

GMT+8, 2022-8-10 04:10 , Processed in 0.048184 second(s), 24 queries .

Powered by Discuz! X3.4

Copyright © 2001-2021, Tencent Cloud.

快速回复 返回顶部 返回列表