请选择 进入手机版 | 继续访问电脑版
本站Q群713428235【盘盘多】已满,请新会员加原盘天堂新官方QQ群709708625【好多盘】,验证信息填写您在论坛的会员名,不填会员名的无法入群哈,进群后修改您的群名片名字为您在论坛的会员名,请务必修改,否则群成员多了不知道您是哪个会员。

原盘天堂

 找回密码
 立即注册
京东商城当当华为商城名牌时尚折扣网,一个新型的网上购物平台,我们每周为您精选3~4个国际知名品牌,商品折扣低至2折限时限量售卖,商品囊括时装、护肤品、箱包、皮具、配饰、香水等等,琳琅满目。亿格瑞A10硬盘播放器 苏宁易购
查看: 51|回复: 0

2d蓝光原盘bdmv 达莱克斯入侵地球 英语原版 daleks.invasion.earth.2150.a.d.1966.remastered.1080p.bluray.avc.lpcm.2.0[46.02 GB]

[复制链接]

7075

主题

8089

帖子

134万

积分

管理员

Rank: 18Rank: 18Rank: 18Rank: 18Rank: 18

积分
1349889
发表于 2022-7-24 09:08:50 | 显示全部楼层 |阅读模式






◎译  名 达莱克斯入侵地球/Daleks' Invasion Earth: 2150 A.D
◎片  名 Daleks' Invasion Earth: 2150 A.D.
◎年  代 1966
◎产  地 英国
◎类  别 科幻
◎语  言 英语
◎上映日期 1966-08-05
◎IMDb评分 5.9/10 from 3985 users
◎IMDb链接 https://www.imdb.com/title/tt0060278/
◎豆瓣评分 7.1/10 from 133 users
◎豆瓣链接 https://douban.com/subject/1829198/
◎片  长 81 分钟
◎编  剧 特瑞·内辛 Terry Nation / 西德尼·纽曼 Sydney Newman / 米尔顿·苏博茨基 Milton Subotsky
◎主  演 彼得·库欣 Peter Cushing
      伯纳德·克理宾斯 Bernard Cribbins
      Roberta Tovey Roberta Tovey
      雷·布鲁克斯 Ray Brooks

◎简  介

  
  转自 飞翔网◎科幻论坛 http://bbs.flyine.net/forum-277-1.html
  
  根据BBC电视剧《Doctor Who(神秘博士)》改编。一名叫做Tom Campbell的警察在个平常的日子里无意中闯入了TARDIS(全称译为“空间中的时间和相对尺度”,是种可以穿越时空的太空船,本来外形可以随所在地的环境变化,伪装成与环境协调的东西,但博士的TARDIS因一次事件,外形固定为1950年的蓝色公用电话警亭),结果被博士带到了2150年的地球。博士和他的助手发现,Dalek们侵略了地球,还把人类改造成机器人,阴谋对地球的核心进行开采。幸存的人们在四处躲藏,避免被改造成机器人。博士把幸存者们组织起来,挫败了Dalek们的阴谋。

DISC INFO:

Disc Title:     Daleks.Invasion.Earth.2150.A.D.1966.REMASTERED.1080p.BluRay.AVC.LPCM.2.0-INCUBO
Disc Size:      49,414,515,572 bytes
Protection:     AACS
Extras:         50Hz Content
BDInfo:         0.7.5.9 (compatible layout created by DVDFab 12.0.7.8)

PLAYLIST REPORT:

Name:                   00000.MPLS  
Length:                 1:24:11.458 (h:m:s.ms)
Size:                   29,545,734,144 bytes
Total Bitrate:          46.79 Mbps

(*) Indicates included stream hidden by this playlist.

VIDEO:

Codec                   Bitrate             Description   
-----                   -------             -----------   
MPEG-4 AVC Video        36749 kbps          1080p / 24 fps / 16:9 / High Profile 4.1

AUDIO:

Codec                           Language        Bitrate         Description   
-----                           --------        -------         -----------   
LPCM Audio                      English         2304 kbps       2.0 / 48 kHz / 2304 kbps / 24-bit
LPCM Audio                      French          2304 kbps       2.0 / 48 kHz / 2304 kbps / 24-bit
LPCM Audio                      German          2304 kbps       2.0 / 48 kHz / 2304 kbps / 24-bit
* DTS Audio                     English         768 kbps        2.0 / 48 kHz / 768 kbps / 24-bit

SUBTITLES:

Codec                           Language        Bitrate         Description   
-----                           --------        -------         -----------   
Presentation Graphics           English         23.607 kbps                    
Presentation Graphics           French          17.58 kbps                     
Presentation Graphics           German          22.194 kbps                    
Presentation Graphics           French          0.079 kbps                     
Presentation Graphics           German          0.149 kbps                     
* Presentation Graphics         French          59.235 kbps  

Video
ID : 1
ID in the original source medium : 4113 (0x1011)
Format : AVC
Format/Info : Advanced Video Codec
Format profile : [email protected]
Format settings : CABAC / 3 Ref Frames
Format settings, CABAC : Yes
Format settings, Reference frames : 3 frames
Codec ID : V_MPEG4/ISO/AVC
Duration : 1 h 23 min
Bit rate mode : Variable
Bit rate : 37.0 Mb/s
Width : 1 920 pixels
Height : 1 080 pixels
Display aspect ratio : 16:9
Frame rate mode : Constant
Frame rate : 24.000 FPS
Color space : YUV
Chroma subsampling : 4:2:0
Bit depth : 8 bits
Scan type : Progressive
Bits/(Pixel*Frame) : 0.743
Stream size : 21.5 GiB (84%)
Writing library : x264 core 157 r2935 545de2f
Encoding settings : cabac=1 / ref=4 / deblock=1:-2:-2 / analyse=0x3:0x133 / me=tesa / subme=11 / psy=1 / psy_rd=1.00:0.25 / mixed_ref=1 / me_range=24 / chroma_me=1 / trellis=2 / 8x8dct=1 / cqm=0 / deadzone=6,6 / fast_pskip=0 / chroma_qp_offset=-4 / threads=24 / lookahead_threads=2 / sliced_threads=0 / slices=4 / nr=0 / decimate=0 / interlaced=0 / bluray_compat=1 / stitchable=1 / constrained_intra=0 / bframes=3 / b_pyramid=1 / b_adapt=2 / b_bias=0 / direct=3 / weightb=1 / open_gop=1 / weightp=1 / keyint=24 / keyint_min=1 / scenecut=40 / intra_refresh=0 / rc_lookahead=24 / rc=2pass / mbtree=1 / bitrate=37000 / ratetol=1.0 / qcomp=0.80 / qpmin=0 / qpmax=69 / qpstep=4 / cplxblur=20.0 / qblur=0.5 / vbv_maxrate=37000 / vbv_bufsize=30000 / nal_hrd=vbr / filler=0 / ip_ratio=1.10 / aq=1:0.50
Language : English
Default : No
Forced : No
Color range : Limited
Color primaries : BT.709
Transfer characteristics : BT.709
Matrix coefficients : BT.709
Original source medium : Blu-ray

Audio #1
ID : 2
ID in the original source medium : 4352 (0x1100)
Format : PCM
Format settings : Little / Signed
Codec ID : A_PCM/INT/LIT
Duration : 1 h 23 min
Bit rate mode : Constant
Bit rate : 2 304 kb/s
Channel(s) : 2 channels
Sampling rate : 48.0 kHz
Frame rate : 30.000 FPS (1600 SPF)
Bit depth : 24 bits
Stream size : 1.35 GiB (5%)
Title : LPCM 2.0
Language : English
Default : Yes
Forced : No
Original source medium : Blu-ray

Audio #2
ID : 3
ID in the original source medium : 4353 (0x1101)
Format : PCM
Format settings : Little / Signed
Codec ID : A_PCM/INT/LIT
Duration : 1 h 23 min
Bit rate mode : Constant
Bit rate : 2 304 kb/s
Channel(s) : 2 channels
Sampling rate : 48.0 kHz
Frame rate : 30.000 FPS (1600 SPF)
Bit depth : 24 bits
Stream size : 1.35 GiB (5%)
Title : LPCM 2.0
Language : French
Default : No
Forced : No
Original source medium : Blu-ray

Audio #3
ID : 4
ID in the original source medium : 4354 (0x1102)
Format : PCM
Format settings : Little / Signed
Codec ID : A_PCM/INT/LIT
Duration : 1 h 23 min
Bit rate mode : Constant
Bit rate : 2 304 kb/s
Channel(s) : 2 channels
Sampling rate : 48.0 kHz
Frame rate : 30.000 FPS (1600 SPF)
Bit depth : 24 bits
Stream size : 1.35 GiB (5%)
Title : LPCM 2.0
Language : German
Default : No
Forced : No
Original source medium : Blu-ray

Text #1
ID : 5
Format : UTF-8
Codec ID : S_TEXT/UTF8
Codec ID/Info : UTF-8 Plain Text
Duration : 1 h 20 min
Bit rate : 39 b/s
Frame rate : 0.138 FPS
Count of elements : 667
Stream size : 23.5 KiB (0%)
Language : English
Default : Yes
Forced : No

Text #2
ID : 6
Format : UTF-8
Codec ID : S_TEXT/UTF8
Codec ID/Info : UTF-8 Plain Text
Duration : 1 h 22 min
Bit rate : 40 b/s
Frame rate : 0.143 FPS
Count of elements : 707
Stream size : 24.2 KiB (0%)
Title : SDH
Language : English
Default : No
Forced : No

Text #3
ID : 7
ID in the original source medium : 4608 (0x1200)
Format : PGS
Muxing mode : zlib
Codec ID : S_HDMV/PGS
Codec ID/Info : Picture based subtitle format used on BDs/HD-DVDs
Duration : 1 h 22 min
Bit rate : 24.0 kb/s
Frame rate : 0.286 FPS
Count of elements : 1416
Stream size : 14.2 MiB (0%)
Language : English
Default : No
Forced : No
Original source medium : Blu-ray

Text #4
ID : 8
ID in the original source medium : 4609 (0x1201)
Format : PGS
Muxing mode : zlib
Codec ID : S_HDMV/PGS
Codec ID/Info : Picture based subtitle format used on BDs/HD-DVDs
Duration : 1 h 21 min
Bit rate : 18.0 kb/s
Frame rate : 0.258 FPS
Count of elements : 1266
Stream size : 10.5 MiB (0%)
Language : French
Default : No
Forced : No
Original source medium : Blu-ray

Text #5
ID : 9
ID in the original source medium : 4610 (0x1202)
Format : PGS
Muxing mode : zlib
Codec ID : S_HDMV/PGS
Codec ID/Info : Picture based subtitle format used on BDs/HD-DVDs
Duration : 1 h 21 min
Bit rate : 22.7 kb/s
Frame rate : 0.254 FPS
Count of elements : 1248
Stream size : 13.3 MiB (0%)
Language : German
Default : No
Forced : No
Original source medium : Blu-ray

Text #6
ID : 10
ID in the original source medium : 4611 (0x1203)
Format : PGS
Muxing mode : zlib
Codec ID : S_HDMV/PGS
Codec ID/Info : Picture based subtitle format used on BDs/HD-DVDs
Duration : 38 min 0 s
Bit rate : 175 b/s
Frame rate : 0.002 FPS
Count of elements : 4
Stream size : 48.8 KiB (0%)
Language : French
Default : No
Forced : No
Original source medium : Blu-ray

Text #7
ID : 11
ID in the original source medium : 4612 (0x1204)
Format : PGS
Muxing mode : zlib
Codec ID : S_HDMV/PGS
Codec ID/Info : Picture based subtitle format used on BDs/HD-DVDs
Duration : 38 min 0 s
Bit rate : 328 b/s
Frame rate : 0.002 FPS
Count of elements : 4
Stream size : 91.5 KiB (0%)
Language : German
Default : No
Forced : No
Original source medium : Blu-ray

Menu
00:00:00.000 : en:Chapter 00
00:08:28.125 : en:Chapter 01
00:14:56.125 : en:Chapter 02
00:23:47.041 : en:Chapter 03
00:31:04.000 : en:Chapter 04
00:36:56.083 : en:Chapter 05
00:43:58.875 : en:Chapter 06
00:50:50.333 : en:Chapter 07
00:57:00.500 : en:Chapter 08
01:04:08.208 : en:Chapter 09
01:09:45.083 : en:Chapter 10
01:16:43.916 : en:Chapter 11

本帖子中包含更多资源

您需要 登录 才可以下载或查看,没有帐号?立即注册

x
回复

使用道具 举报

您需要登录后才可以回帖 登录 | 立即注册

本版积分规则

QQ|Archiver|手机版|小黑屋|原盘天堂 好多盘 点击这里给我发消息

GMT+8, 2022-8-10 03:12 , Processed in 0.046782 second(s), 24 queries .

Powered by Discuz! X3.4

Copyright © 2001-2021, Tencent Cloud.

快速回复 返回顶部 返回列表