请选择 进入手机版 | 继续访问电脑版
本站Q群713428235【盘盘多】已满,请新会员加原盘天堂新官方QQ群709708625【好多盘】,验证信息填写您在论坛的会员名,不填会员名的无法入群哈,进群后修改您的群名片名字为您在论坛的会员名,请务必修改,否则群成员多了不知道您是哪个会员。

原盘天堂

 找回密码
 立即注册
京东商城当当华为商城名牌时尚折扣网,一个新型的网上购物平台,我们每周为您精选3~4个国际知名品牌,商品折扣低至2折限时限量售卖,商品囊括时装、护肤品、箱包、皮具、配饰、香水等等,琳琅满目。亿格瑞A10硬盘播放器 苏宁易购
查看: 56|回复: 0

2d蓝光原盘bdmv 女王神剑 重制版 英语原版 red.sonja.1985.remastered.1080p.bluray.avc.dts-hd.ma.5.1[44.44 GB]

[复制链接]

7075

主题

8089

帖子

134万

积分

管理员

Rank: 18Rank: 18Rank: 18Rank: 18Rank: 18

积分
1349889
发表于 2022-7-23 07:41:58 | 显示全部楼层 |阅读模式








◎译  名 女王神剑/红发女索妮娅/两个大太阳/圣女复仇
◎片  名 Red Sonja
◎年  代 1985
◎产  地 美国/荷兰
◎类  别 动作/奇幻/冒险
◎语  言 英语
◎上映日期 1985-07-03(美国)
◎IMDb评分 5.1/10 from 41604 users
◎IMDb链接 https://www.imdb.com/title/tt0089893/
◎豆瓣评分 5.7/10 from 649 users
◎豆瓣链接 https://douban.com/subject/1297394/
◎片  长 89 分钟
◎导  演 理查德·弗莱彻 Richard Fleischer
◎编  剧 罗伯特·霍华德 Robert E. Howard / 克里夫·埃克斯顿 Clive Exton / 乔治·麦克唐纳·弗莱泽 George MacDonald Fraser / 罗伊·托马斯 Roy Thomas / 巴里·温莎·史密斯 Barry Windsor-Smith
◎主  演 阿诺·施瓦辛格 Arnold Schwarzenegger
      布里吉特·尼尔森 Brigitte Nielsen
      桑达·伯格曼 Sandahl Bergman
      保罗·L·史密斯 Paul L. Smith
      厄尼·雷耶斯 Ernie Reyes Jr.
      罗纳德·莱西 Ronald Lacey
      帕特·罗奇 Pat Roach
      珍妮特·阿格伦 Janet Agren
      拉腊·兰贝蒂 Lara Lamberti
      汉斯·迈尔 Hans Meyer
      弗兰切丝卡·布露玛拉·科鲁奇 Francesca Romana Coluzzi
      史文-欧尔·托尔森 Sven-Ole Thorsen
      Stefano Maria Mioni Stefano Maria Mioni
      Tutte Lemkow Tutte Lemkow
      Tad Horino Tad Horino
      Erik Holmey Erik Holmey

◎简  介

  
  女主角索妮娅生于一个小康之家,过着平静的生活;有一天,她的父母被一名恶毒的皇族杀害。索妮娅伤心欲绝之际,誓要为父母报仇。她原来拥有一种神秘力量,可是她不可爱上男人,除非那个男人强过她,否则,她的神力就会消失。幸好在追寻那个毒后途中,遇上一名心仪的男人……

DISC INFO:

Disc Title:     Red.Sonja.1985.REMASTERED.1080p.BluRay.AVC.DTS-HD.MA.5.1-INCUBO
Disc Size:      47,719,679,140 bytes
Protection:     AACS
BDInfo:         0.7.5.9 (compatible layout created by DVDFab 12.0.7.8)

PLAYLIST REPORT:

Name:                   00017.MPLS  
Length:                 1:29:06.208 (h:m:s.ms)
Size:                   27,086,708,736 bytes
Total Bitrate:          40.53 Mbps

VIDEO:

Codec                   Bitrate             Description   
-----                   -------             -----------   
MPEG-4 AVC Video        27884 kbps          1080p / 24 fps / 16:9 / High Profile 4.1

AUDIO:

Codec                           Language        Bitrate         Description   
-----                           --------        -------         -----------   
LPCM Audio                      German          2304 kbps       2.0 / 48 kHz / 2304 kbps / 24-bit
DTS-HD Master Audio             English         3792 kbps       5.1 / 48 kHz / 3792 kbps / 24-bit (DTS Core: 5.1 / 48 kHz / 1509 kbps / 24-bit)
DTS-HD Master Audio             French          1881 kbps       5.1 / 48 kHz / 1881 kbps / 24-bit (DTS Core: 5.1 / 48 kHz / 1509 kbps / 24-bit)
LPCM Audio                      French          2304 kbps       2.0 / 48 kHz / 2304 kbps / 24-bit

SUBTITLES:

Codec                           Language        Bitrate         Description   
-----                           --------        -------         -----------   
Presentation Graphics           German          16.442 kbps                    
Presentation Graphics           English         13.36 kbps                     
Presentation Graphics           French          13.969 kbps                    
Presentation Graphics           German          0.513 kbps                     
Presentation Graphics           French          0.718 kbps     


Video
ID : 1
ID in the original source medium : 4113 (0x1011)
Format : AVC
Format/Info : Advanced Video Codec
Format profile : [email protected]
Format settings : CABAC / 3 Ref Frames
Format settings, CABAC : Yes
Format settings, Reference frames : 3 frames
Codec ID : V_MPEG4/ISO/AVC
Duration : 1 h 29 min
Bit rate mode : Variable
Bit rate : 28.0 Mb/s
Maximum bit rate : 34.0 Mb/s
Width : 1 920 pixels
Height : 1 080 pixels
Display aspect ratio : 16:9
Frame rate mode : Constant
Frame rate : 24.000 FPS
Color space : YUV
Chroma subsampling : 4:2:0
Bit depth : 8 bits
Scan type : Progressive
Bits/(Pixel*Frame) : 0.563
Stream size : 17.4 GiB (73%)
Writing library : x264 core 159 r2991 1771b55
Encoding settings : cabac=1 / ref=4 / deblock=1:-1:-1 / analyse=0x3:0x113 / me=hex / subme=8 / psy=1 / psy_rd=1.00:0.15 / mixed_ref=1 / me_range=16 / chroma_me=1 / trellis=2 / 8x8dct=1 / cqm=0 / deadzone=21,11 / fast_pskip=1 / chroma_qp_offset=-3 / threads=18 / lookahead_threads=3 / sliced_threads=0 / slices=4 / nr=0 / decimate=1 / interlaced=0 / bluray_compat=1 / constrained_intra=0 / bframes=2 / b_pyramid=1 / b_adapt=1 / b_bias=0 / direct=3 / weightb=1 / open_gop=0 / weightp=1 / keyint=24 / keyint_min=1 / scenecut=40 / intra_refresh=0 / rc_lookahead=24 / rc=2pass / mbtree=1 / bitrate=28000 / ratetol=1.0 / qcomp=0.60 / qpmin=0 / qpmax=69 / qpstep=4 / cplxblur=20.0 / qblur=0.5 / vbv_maxrate=34000 / vbv_bufsize=30000 / nal_hrd=vbr / filler=0 / ip_ratio=1.40 / aq=1:1.00
Language : English
Default : No
Forced : No
Color range : Limited
Color primaries : BT.709
Transfer characteristics : BT.709
Matrix coefficients : BT.709
Original source medium : Blu-ray

Audio #1
ID : 2
ID in the original source medium : 4353 (0x1101)
Format : DTS XLL
Format/Info : Digital Theater Systems
Commercial name : DTS-HD Master Audio
Codec ID : A_DTS
Duration : 1 h 29 min
Bit rate mode : Variable
Bit rate : 3 792 kb/s
Channel(s) : 6 channels
Channel layout : C L R Ls Rs LFE
Sampling rate : 48.0 kHz
Frame rate : 93.750 FPS (512 SPF)
Bit depth : 24 bits
Compression mode : Lossless
Stream size : 2.36 GiB (10%)
Title : DTS-HD MA 5.1
Language : English
Default : Yes
Forced : No
Original source medium : Blu-ray

Audio #2
ID : 3
ID in the original source medium : 4354 (0x1102)
Format : DTS XLL
Format/Info : Digital Theater Systems
Commercial name : DTS-HD Master Audio
Codec ID : A_DTS
Duration : 1 h 29 min
Bit rate mode : Variable
Bit rate : 1 881 kb/s
Channel(s) : 6 channels
Channel layout : C L R Ls Rs LFE
Sampling rate : 48.0 kHz
Frame rate : 93.750 FPS (512 SPF)
Bit depth : 24 bits
Compression mode : Lossless
Stream size : 1.17 GiB (5%)
Title : DTS-HD MA 5.1
Language : French
Default : No
Forced : No
Original source medium : Blu-ray

Audio #3
ID : 4
ID in the original source medium : 4352 (0x1100)
Format : PCM
Format settings : Little / Signed
Codec ID : A_PCM/INT/LIT
Duration : 1 h 29 min
Bit rate mode : Constant
Bit rate : 2 304 kb/s
Channel(s) : 2 channels
Sampling rate : 48.0 kHz
Frame rate : 30.000 FPS (1600 SPF)
Bit depth : 24 bits
Stream size : 1.43 GiB (6%)
Title : LPCM 2.0
Language : German
Default : No
Forced : No
Original source medium : Blu-ray

Audio #4
ID : 5
ID in the original source medium : 4355 (0x1103)
Format : PCM
Format settings : Little / Signed
Codec ID : A_PCM/INT/LIT
Duration : 1 h 29 min
Bit rate mode : Constant
Bit rate : 2 304 kb/s
Channel(s) : 2 channels
Sampling rate : 48.0 kHz
Frame rate : 30.000 FPS (1600 SPF)
Bit depth : 24 bits
Stream size : 1.43 GiB (6%)
Title : LPCM 2.0
Language : French
Default : No
Forced : No
Original source medium : Blu-ray

Text #1
ID : 6
Format : UTF-8
Codec ID : S_TEXT/UTF8
Codec ID/Info : UTF-8 Plain Text
Duration : 1 h 24 min
Bit rate : 24 b/s
Frame rate : 0.086 FPS
Count of elements : 437
Stream size : 15.0 KiB (0%)
Language : English
Default : Yes
Forced : No

Text #2
ID : 7
ID in the original source medium : 4609 (0x1201)
Format : PGS
Muxing mode : zlib
Codec ID : S_HDMV/PGS
Codec ID/Info : Picture based subtitle format used on BDs/HD-DVDs
Duration : 1 h 24 min
Bit rate : 14.1 kb/s
Frame rate : 0.173 FPS
Count of elements : 874
Stream size : 8.51 MiB (0%)
Language : English
Default : No
Forced : No
Original source medium : Blu-ray

Text #3
ID : 8
ID in the original source medium : 4608 (0x1200)
Format : PGS
Muxing mode : zlib
Codec ID : S_HDMV/PGS
Codec ID/Info : Picture based subtitle format used on BDs/HD-DVDs
Duration : 1 h 28 min
Bit rate : 16.5 kb/s
Frame rate : 0.171 FPS
Count of elements : 910
Stream size : 10.5 MiB (0%)
Language : German
Default : No
Forced : No
Original source medium : Blu-ray

Text #4
ID : 9
ID in the original source medium : 4610 (0x1202)
Format : PGS
Muxing mode : zlib
Codec ID : S_HDMV/PGS
Codec ID/Info : Picture based subtitle format used on BDs/HD-DVDs
Duration : 1 h 28 min
Bit rate : 14.0 kb/s
Frame rate : 0.206 FPS
Count of elements : 1098
Stream size : 8.90 MiB (0%)
Language : French
Default : No
Forced : No
Original source medium : Blu-ray

Menu
00:00:00.000 : en:Chapter 01
00:07:46.541 : en:Chapter 02
00:14:01.583 : en:Chapter 03
00:22:16.958 : en:Chapter 04
00:28:26.291 : en:Chapter 05
00:37:40.000 : en:Chapter 06
00:45:39.416 : en:Chapter 07
00:51:59.791 : en:Chapter 08
01:00:04.208 : en:Chapter 09
01:07:25.458 : en:Chapter 10
01:15:19.375 : en:Chapter 11
01:20:20.875 : en:Chapter 12

本帖子中包含更多资源

您需要 登录 才可以下载或查看,没有帐号?立即注册

x
回复

使用道具 举报

您需要登录后才可以回帖 登录 | 立即注册

本版积分规则

QQ|Archiver|手机版|小黑屋|原盘天堂 好多盘 点击这里给我发消息

GMT+8, 2022-8-10 04:13 , Processed in 0.045861 second(s), 24 queries .

Powered by Discuz! X3.4

Copyright © 2001-2021, Tencent Cloud.

快速回复 返回顶部 返回列表