请选择 进入手机版 | 继续访问电脑版
本站Q群713428235【盘盘多】已满,请新会员加原盘天堂新官方QQ群709708625【好多盘】,验证信息填写您在论坛的会员名,不填会员名的无法入群哈,进群后修改您的群名片名字为您在论坛的会员名,请务必修改,否则群成员多了不知道您是哪个会员。

原盘天堂

 找回密码
 立即注册
京东商城当当华为商城名牌时尚折扣网,一个新型的网上购物平台,我们每周为您精选3~4个国际知名品牌,商品折扣低至2折限时限量售卖,商品囊括时装、护肤品、箱包、皮具、配饰、香水等等,琳琅满目。亿格瑞A10硬盘播放器 苏宁易购
查看: 64|回复: 0

4k蓝光原盘bdmv 杀手 英语原版 the.killing.1956.2160p.bluray.hevc.dts-hd.ma.2.0[53.38 GB]

[复制链接]

7075

主题

8089

帖子

134万

积分

管理员

Rank: 18Rank: 18Rank: 18Rank: 18Rank: 18

积分
1349889
发表于 2022-7-23 07:14:59 | 显示全部楼层 |阅读模式








◎译  名 杀手/杀戮/致命
◎片  名 The Killing
◎年  代 1956
◎产  地 美国
◎类  别 惊悚/犯罪/黑色电影
◎语  言 英语
◎上映日期 1956-05-19(纽约首映)/1956-06-06(美国)
◎IMDb评分 8/10 from 89126 users
◎IMDb链接 https://www.imdb.com/title/tt0049406/
◎豆瓣评分 8.6/10 from 27771 users
◎豆瓣链接 https://douban.com/subject/1293936/
◎片  长 85分钟
◎导  演 斯坦利·库布里克 Stanley Kubrick
◎编  剧 斯坦利·库布里克 Stanley Kubrick / 吉姆·汤普森 Jim Thompson
◎主  演 斯特林·海登 Sterling Hayden
      柯琳·格蕾 Coleen Gray
      文斯·爱德华兹 Vince Edwards
      杰伊·C·弗利朋 Jay C. Flippen
      特·德·科若 Ted de Corsia
      玛丽·温莎 Marie Windsor
      小伊莱莎·库克 Elisha Cook Jr.
      乔·索耶 Joe Sawyer
      詹姆斯·爱德华兹 James Edwards
      蒂莫西·凯瑞 Timothy Carey
      Kola Kwariani Kola Kwariani
      Jay Adler Jay Adler
      蒂托·沃洛 Tito Vuolo
      多萝西·亚当斯 Dorothy Adams
      赫伯特埃利斯 Herbert Ellis
      詹姆斯·格里菲斯 James Griffith
      Cecil Elliott Cecil Elliott
      乔·托克尔 Joe Turkel
      Mary Carroll Mary Carroll
      William 'Billy' Benedict William 'Billy' Benedict
      Charles Cane Charles Cane
      罗伯特威廉姆斯 Robert Williams
      汤姆·科尔曼 Tom Coleman
      鲁德尼·丹泽菲尔德 Rodney Dangerfield
      富兰克林·法纳姆 Franklyn Farnum
      John George John George
      阿特·吉尔摩 Art Gilmore
      Sol Gorss Sol Gorss
      Harry Hines Harry Hines
      肯纳G.肯普 Kenner G. Kemp
      卡尔·M·莱维尼斯 Carl M. Leviness
      Harvey Parry Harvey Parry
      理查德·里夫斯 Richard Reeves
      弗兰克理查兹 Frank Richards
      Arthur Tovey Arthur Tovey

◎简  介

  
  在监狱服刑的5年期间,乔尼·科雷(Sterling Hayden 饰)想出一条绝妙的抢劫计划。出狱后,他集结一帮非法之徒,共同策划抢劫赛马场的两百万美元巨资,并且做到“无一人伤亡”。然而智者千虑,必有一失。乔尼天衣无缝的计划得以顺利实施,却被同伙乔治(Elisha Co ok Jr. 饰)的老婆谢莉(Marie Windsor 饰)打乱。她得知丈夫的计划后,联合情夫沃尔(Vince Edwards 饰)向巨款伸出贪婪之手……
  
  本片根据里昂努·怀特(Lionel White)的小说《Clean Break》改编的,库布里克担任编剧,并请来著名小说家吉姆·汤普森修改了对白部分。
  
DISC INFO:

Disc Title:     The.Killing.1956.2160p.BluRay.HEVC.DTS-HD.MA.2.0-PTer
Disc Size:      57,311,002,102 bytes
Protection:     AACS2
Extras:         Ultra HD
BDInfo:         0.7.5.9 (compatible layout created by DVDFab 12.0.7.8)

PLAYLIST REPORT:

Name:                   00001.MPLS  
Length:                 1:23:54.250 (h:m:s.ms)
Size:                   54,895,005,696 bytes
Total Bitrate:          87.23 Mbps

(*) Indicates included stream hidden by this playlist.

VIDEO:

Codec                   Bitrate             Description   
-----                   -------             -----------   
MPEG-H HEVC Video       76497 kbps          2160p / 24 fps / 16:9 / Main 10 @ Level 5.1 @ High / 4:2:0 / 10 bits / 1000nits / HDR10 / BT.2020
* MPEG-H HEVC Video     2775 kbps (3.50%)   1080p / 24 fps / 16:9 / Main 10 @ Level 5.1 @ High / 4:2:0 / 10 bits / 1000nits / Dolby Vision FEL / BT.2020

AUDIO:

Codec                           Language        Bitrate         Description   
-----                           --------        -------         -----------   
DTS-HD Master Audio             English         1817 kbps       2.0 / 48 kHz / 1817 kbps / 24-bit (DTS Core: 2.0 / 48 kHz / 1509 kbps / 24-bit)
DTS-HD Master Audio             English         1865 kbps       2.0 / 48 kHz / 1865 kbps / 24-bit (DTS Core: 2.0 / 48 kHz / 1509 kbps / 24-bit)

SUBTITLES:

Codec                           Language        Bitrate         Description   
-----                           --------        -------         -----------   
Presentation Graphics           English         57.4 kbps  


Video
ID : 1
ID in the original source medium : 4113 (0x1011)
Format : HEVC
Format/Info : High Efficiency Video Coding
Format profile : Main [email protected]@High
HDR format : Dolby Vision, Version 1.0, dvhe.07.06, BL+EL+RPU, Blu-ray compatible / SMPTE ST 2086, HDR10 compatible
Codec ID : V_MPEGH/ISO/HEVC
Duration : 1 h 23 min
Bit rate : 79.3 Mb/s
Width : 3 840 pixels
Height : 2 160 pixels
Display aspect ratio : 16:9
Frame rate mode : Constant
Frame rate : 24.000 FPS
Color space : YUV
Chroma subsampling : 4:2:0 (Type 2)
Bit depth : 10 bits
Bits/(Pixel*Frame) : 0.398
Stream size : 46.5 GiB (95%)
Language : English
Default : No
Forced : No
Color range : Limited
Color primaries : BT.2020
Transfer characteristics : PQ
Matrix coefficients : BT.2020 non-constant
Mastering display color primaries : Display P3
Mastering display luminance : min: 0.0001 cd/m2, max: 1000 cd/m2
Maximum Content Light Level : 1000 cd/m2
Maximum Frame-Average Light Level : 65 cd/m2
Original source medium : Blu-ray

Audio #1
ID : 2
ID in the original source medium : 4352 (0x1100)
Format : DTS XLL
Format/Info : Digital Theater Systems
Commercial name : DTS-HD Master Audio
Codec ID : A_DTS
Duration : 1 h 23 min
Bit rate mode : Variable
Bit rate : 1 817 kb/s
Channel(s) : 2 channels
Channel layout : L R
Sampling rate : 48.0 kHz
Frame rate : 93.750 FPS (512 SPF)
Bit depth : 24 bits
Compression mode : Lossless
Stream size : 1.06 GiB (2%)
Title : DTS-HD MA 2.0
Language : English
Default : Yes
Forced : No
Original source medium : Blu-ray

Audio #2
ID : 3
Format : AC-3
Format/Info : Audio Coding 3
Commercial name : Dolby Digital
Codec ID : A_AC3
Duration : 1 h 23 min
Bit rate mode : Constant
Bit rate : 640 kb/s
Channel(s) : 2 channels
Channel layout : L R
Sampling rate : 48.0 kHz
Frame rate : 31.250 FPS (1536 SPF)
Compression mode : Lossy
Stream size : 384 MiB (1%)
Title : DD 2.0
Language : English
Service kind : Complete Main
Default : No
Forced : No

Audio #3
ID : 4
ID in the original source medium : 4353 (0x1101)
Format : DTS XLL
Format/Info : Digital Theater Systems
Commercial name : DTS-HD Master Audio
Codec ID : A_DTS
Duration : 1 h 23 min
Bit rate mode : Variable
Bit rate : 1 865 kb/s
Channel(s) : 2 channels
Channel layout : L R
Sampling rate : 48.0 kHz
Frame rate : 93.750 FPS (512 SPF)
Bit depth : 24 bits
Compression mode : Lossless
Stream size : 1.09 GiB (2%)
Title : DTS-HD MA 2.0
Language : English
Default : No
Forced : No
Original source medium : Blu-ray

Text #1
ID : 5
Format : UTF-8
Codec ID : S_TEXT/UTF8
Codec ID/Info : UTF-8 Plain Text
Duration : 1 h 21 min
Bit rate : 98 b/s
Frame rate : 0.255 FPS
Count of elements : 1254
Stream size : 59.1 KiB (0%)
Language : English
Default : Yes
Forced : No

Text #2
ID : 6
ID in the original source medium : 4768 (0x12A0)
Format : PGS
Muxing mode : zlib
Codec ID : S_HDMV/PGS
Codec ID/Info : Picture based subtitle format used on BDs/HD-DVDs
Duration : 1 h 21 min
Bit rate : 58.8 kb/s
Frame rate : 0.513 FPS
Count of elements : 2520
Stream size : 34.4 MiB (0%)
Language : English
Default : No
Forced : No
Original source medium : Blu-ray

Menu
00:00:00.000 : en:Chapter 01
00:06:43.125 : en:Chapter 02
00:15:20.000 : en:Chapter 03
00:24:26.958 : en:Chapter 04
00:32:29.083 : en:Chapter 05
00:40:26.750 : en:Chapter 06
00:49:10.833 : en:Chapter 07
00:56:39.125 : en:Chapter 08
01:02:30.583 : en:Chapter 09
01:13:27.208 : en:Chapter 10

本帖子中包含更多资源

您需要 登录 才可以下载或查看,没有帐号?立即注册

x
回复

使用道具 举报

您需要登录后才可以回帖 登录 | 立即注册

本版积分规则

QQ|Archiver|手机版|小黑屋|原盘天堂 好多盘 点击这里给我发消息

GMT+8, 2022-8-10 03:16 , Processed in 0.065214 second(s), 24 queries .

Powered by Discuz! X3.4

Copyright © 2001-2021, Tencent Cloud.

快速回复 返回顶部 返回列表