请选择 进入手机版 | 继续访问电脑版
本站Q群713428235【盘盘多】已满,请新会员加原盘天堂新官方QQ群709708625【好多盘】,验证信息填写您在论坛的会员名,不填会员名的无法入群哈,进群后修改您的群名片名字为您在论坛的会员名,请务必修改,否则群成员多了不知道您是哪个会员。

原盘天堂

 找回密码
 立即注册
京东商城当当华为商城名牌时尚折扣网,一个新型的网上购物平台,我们每周为您精选3~4个国际知名品牌,商品折扣低至2折限时限量售卖,商品囊括时装、护肤品、箱包、皮具、配饰、香水等等,琳琅满目。亿格瑞A10硬盘播放器 苏宁易购
查看: 62|回复: 0

4k蓝光原盘bdmv 黑暗 英语原版 tenebrae.1982.2160p.bluray.hevc.dts-hd.ma.2.0[85.14 GB]

[复制链接]

7075

主题

8089

帖子

134万

积分

管理员

Rank: 18Rank: 18Rank: 18Rank: 18Rank: 18

积分
1349889
发表于 2022-7-22 09:17:07 | 显示全部楼层 |阅读模式








◎译  名 黑暗/坦妮布丽/Tenebrae
◎片  名 Tenebre
◎年  代 1982
◎产  地 意大利
◎类  别 悬疑/惊悚/恐怖
◎语  言 意大利语
◎上映日期 1982-10-28(意大利)
◎IMDb评分 7/10 from 23606 users
◎IMDb链接 https://www.imdb.com/title/tt0084777/
◎豆瓣评分 6.8/10 from 908 users
◎豆瓣链接 https://douban.com/subject/1298217/
◎片  长 101分钟
◎导  演 达里奥·阿基多 Dario Argento
◎编  剧 达里奥·阿基多 Dario Argento
◎主  演 安东尼·弗兰西欧萨 Anthony Franciosa
      约翰·萨克松 John Saxon
      达里亚·尼科洛迪 Daria Nicolodi
      朱利亚诺·杰玛 Giuliano Gemma
      Christian Borromeo Christian Borromeo
      米雷拉·德安杰洛 Mirella D'Angelo
      维罗妮卡·拉里奥 Veronica Lario
      阿尼娅·皮艾洛丽 Ania Pieroni
      伊娃·罗宾斯 Eva Robin's
      卡罗拉·斯蒂格罗 Carola Stagnaro
      约翰·斯坦纳 John Steiner
      拉腊·文德尔 Lara Wendel
      密莱勒·班蒂 Mirella Banti
      恩尼奥·吉罗拉米 Ennio Girolami
      Marino Masé Marino Masé
      Francesca Viscardi Francesca Viscardi
      达里奥·阿基多 Dario Argento
      西恩·布瑞特 Sean Barrett
      兰帕德·帕瓦 Lamberto Bava
      阿德里安娜·波斯塔 Adrienne Posta
      泰莉莎·拉塞尔 Theresa Russell
      米歇尔·索伊 Michele Soavi

◎简  介

  
  美国作家彼得•尼尔(Anthony Franciosa 饰)善写恐怖惊悚小说,其作品风靡欧洲各国。不久前,意大利出版了他的最新作品——《坦妮布丽(Tenebre)》,很快他便收到一封来自罗马的信件。来信者称他从彼得的作品中得到灵感,并运用到杀人的实践中去。随后一名年轻漂亮的女子被人残忍杀害,其作案手法正与《坦妮布丽》中的杀人手法相同。
  
  彼得立即联系罗马警方,两名得力警探(Giuliano Gemma & Carola Stagnaro 饰)随即受命调查此案。然而罪犯并未就此罢休,不断有年轻女性遇害。一时间人心惶惶,形势迫在眉睫……

DISC INFO:

Disc Title:     Tenebrae.1982.COMPLETE.UHD.BLURAY-GUHZER
Disc Size:      91,416,134,647 bytes
Protection:     AACS2
Extras:         Ultra HD
BDInfo:         0.7.5.9 (compatible layout created by DVDFab 12.0.7.8)

PLAYLIST REPORT:

Name:                   00100.MPLS  
Length:                 1:41:03.891 (h:m:s.ms)
Size:                   77,265,795,072 bytes
Total Bitrate:          101.94 Mbps

(*) Indicates included stream hidden by this playlist.

VIDEO:

Codec                   Bitrate             Description   
-----                   -------             -----------   
MPEG-H HEVC Video       93846 kbps          2160p / 23.976 fps / 16:9 / Main 10 @ Level 5.1 @ High / 4:2:0 / 10 bits / 1000nits / HDR10 / BT.2020
* MPEG-H HEVC Video     71 kbps (0.08%)     1080p / 23.976 fps / 16:9 / Main 10 @ Level 5.1 @ High / 4:2:0 / 10 bits / 1000nits / Dolby Vision MEL / BT.2020

AUDIO:

Codec                           Language        Bitrate         Description   
-----                           --------        -------         -----------   
DTS-HD Master Audio             English         1356 kbps       2.0 / 48 kHz / 1356 kbps / 24-bit (DTS Core: 2.0 / 48 kHz / 768 kbps / 24-bit)
Dolby Digital Audio             English         192 kbps        2.0 / 48 kHz / 192 kbps
Dolby Digital Audio             English         192 kbps        2.0 / 48 kHz / 192 kbps
Dolby Digital Audio             English         192 kbps        2.0 / 48 kHz / 192 kbps
* DTS-HD Master Audio           Italian         1305 kbps       2.0 / 48 kHz / 1305 kbps / 24-bit (DTS Core: 2.0 / 48 kHz / 768 kbps / 24-bit)

SUBTITLES:

Codec                           Language        Bitrate         Description   
-----                           --------        -------         -----------   
Presentation Graphics           English         26.613 kbps                    
* Presentation Graphics         English         22.21 kbps   


Video
ID : 1
ID in the original source medium : 4113 (0x1011)
Format : HEVC
Format/Info : High Efficiency Video Coding
Format profile : Main [email protected]@High
HDR format : Dolby Vision, Version 1.0, dvhe.07.06, BL+EL+RPU, Blu-ray compatible / SMPTE ST 2086, HDR10 compatible
Codec ID : V_MPEGH/ISO/HEVC
Duration : 1 h 41 min
Bit rate : 93.9 Mb/s
Width : 3 840 pixels
Height : 2 160 pixels
Display aspect ratio : 16:9
Frame rate mode : Constant
Frame rate : 23.976 (24000/1001) FPS
Color space : YUV
Chroma subsampling : 4:2:0 (Type 2)
Bit depth : 10 bits
Bits/(Pixel*Frame) : 0.472
Stream size : 66.3 GiB (97%)
Language : English
Default : No
Forced : No
Color range : Limited
Color primaries : BT.2020
Transfer characteristics : PQ
Matrix coefficients : BT.2020 non-constant
Mastering display color primaries : BT.2020
Mastering display luminance : min: 0.0001 cd/m2, max: 1000 cd/m2
Original source medium : Blu-ray

Audio #1
ID : 2
ID in the original source medium : 4352 (0x1100)
Format : DTS XLL
Format/Info : Digital Theater Systems
Commercial name : DTS-HD Master Audio
Codec ID : A_DTS
Duration : 1 h 41 min
Bit rate mode : Variable
Bit rate : 1 356 kb/s
Channel(s) : 2 channels
Channel layout : L R
Sampling rate : 48.0 kHz
Frame rate : 93.750 FPS (512 SPF)
Bit depth : 24 bits
Compression mode : Lossless
Stream size : 980 MiB (1%)
Title : DTS-HD MA 2.0
Language : English
Default : Yes
Forced : No
Original source medium : Blu-ray

Audio #2
ID : 3
Format : AC-3
Format/Info : Audio Coding 3
Commercial name : Dolby Digital
Codec ID : A_AC3
Duration : 1 h 41 min
Bit rate mode : Constant
Bit rate : 640 kb/s
Channel(s) : 2 channels
Channel layout : L R
Sampling rate : 48.0 kHz
Frame rate : 31.250 FPS (1536 SPF)
Compression mode : Lossy
Stream size : 463 MiB (1%)
Title : DD 2.0
Language : English
Service kind : Complete Main
Default : No
Forced : No

Audio #3
ID : 4
ID in the original source medium : 4354 (0x1102)
Format : AC-3
Format/Info : Audio Coding 3
Commercial name : Dolby Digital
Codec ID : A_AC3
Duration : 1 h 41 min
Bit rate mode : Constant
Bit rate : 192 kb/s
Channel(s) : 2 channels
Channel layout : L R
Sampling rate : 48.0 kHz
Frame rate : 31.250 FPS (1536 SPF)
Compression mode : Lossy
Stream size : 139 MiB (0%)
Title : DD 2.0
Language : English
Service kind : Complete Main
Default : No
Forced : No
Original source medium : Blu-ray

Audio #4
ID : 5
ID in the original source medium : 4355 (0x1103)
Format : AC-3
Format/Info : Audio Coding 3
Commercial name : Dolby Digital
Codec ID : A_AC3
Duration : 1 h 41 min
Bit rate mode : Constant
Bit rate : 192 kb/s
Channel(s) : 2 channels
Channel layout : L R
Sampling rate : 48.0 kHz
Frame rate : 31.250 FPS (1536 SPF)
Compression mode : Lossy
Stream size : 139 MiB (0%)
Title : DD 2.0
Language : English
Service kind : Complete Main
Default : No
Forced : No
Original source medium : Blu-ray

Audio #5
ID : 6
ID in the original source medium : 4356 (0x1104)
Format : AC-3
Format/Info : Audio Coding 3
Commercial name : Dolby Digital
Codec ID : A_AC3
Duration : 1 h 41 min
Bit rate mode : Constant
Bit rate : 192 kb/s
Channel(s) : 2 channels
Channel layout : L R
Sampling rate : 48.0 kHz
Frame rate : 31.250 FPS (1536 SPF)
Compression mode : Lossy
Stream size : 139 MiB (0%)
Title : DD 2.0
Language : English
Service kind : Complete Main
Default : No
Forced : No
Original source medium : Blu-ray

Text #1
ID : 7
Format : UTF-8
Codec ID : S_TEXT/UTF8
Codec ID/Info : UTF-8 Plain Text
Duration : 1 h 36 min
Bit rate : 40 b/s
Frame rate : 0.136 FPS
Count of elements : 790
Stream size : 28.9 KiB (0%)
Language : English
Default : Yes
Forced : No

Text #2
ID : 8
Format : UTF-8
Codec ID : S_TEXT/UTF8
Codec ID/Info : UTF-8 Plain Text
Duration : 1 h 39 min
Bit rate : 41 b/s
Frame rate : 0.148 FPS
Count of elements : 878
Stream size : 30.4 KiB (0%)
Title : SDH
Language : English
Default : No
Forced : No

Text #3
ID : 9
ID in the original source medium : 4768 (0x12A0)
Format : PGS
Muxing mode : zlib
Codec ID : S_HDMV/PGS
Codec ID/Info : Picture based subtitle format used on BDs/HD-DVDs
Duration : 1 h 39 min
Bit rate : 27.1 kb/s
Frame rate : 0.301 FPS
Count of elements : 1792
Stream size : 19.2 MiB (0%)
Language : English
Default : No
Forced : No
Original source medium : Blu-ray

Menu
00:00:00.000 : en:Chapter 01
00:08:13.951 : en:Chapter 02
00:16:18.727 : en:Chapter 03
00:26:30.714 : en:Chapter 04
00:33:35.680 : en:Chapter 05
00:37:56.232 : en:Chapter 06
00:45:59.381 : en:Chapter 07
00:55:01.214 : en:Chapter 08
01:02:35.084 : en:Chapter 09
01:12:48.822 : en:Chapter 10
01:22:10.926 : en:Chapter 11
01:29:57.683 : en:Chapter 12

本帖子中包含更多资源

您需要 登录 才可以下载或查看,没有帐号?立即注册

x
回复

使用道具 举报

您需要登录后才可以回帖 登录 | 立即注册

本版积分规则

QQ|Archiver|手机版|小黑屋|原盘天堂 好多盘 点击这里给我发消息

GMT+8, 2022-8-10 03:59 , Processed in 0.048007 second(s), 24 queries .

Powered by Discuz! X3.4

Copyright © 2001-2021, Tencent Cloud.

快速回复 返回顶部 返回列表