请选择 进入手机版 | 继续访问电脑版
本站Q群713428235【盘盘多】已满,请新会员加原盘天堂新官方QQ群709708625【好多盘】,验证信息填写您在论坛的会员名,不填会员名的无法入群哈,进群后修改您的群名片名字为您在论坛的会员名,请务必修改,否则群成员多了不知道您是哪个会员。

原盘天堂

 找回密码
 立即注册
京东商城当当华为商城名牌时尚折扣网,一个新型的网上购物平台,我们每周为您精选3~4个国际知名品牌,商品折扣低至2折限时限量售卖,商品囊括时装、护肤品、箱包、皮具、配饰、香水等等,琳琅满目。亿格瑞A10硬盘播放器 苏宁易购
查看: 82|回复: 0

4k蓝光原盘bdmv 达莱克斯入侵地球 英语原版 daleks.invasion.earth.2150.a.d.1966.2160p.bluray.hevc.lpcm.2.0[93.04 GB]

[复制链接]

7075

主题

8089

帖子

134万

积分

管理员

Rank: 18Rank: 18Rank: 18Rank: 18Rank: 18

积分
1349889
发表于 2022-7-19 09:03:20 | 显示全部楼层 |阅读模式






◎译  名 达莱克斯入侵地球/Daleks' Invasion Earth: 2150 A.D
◎片  名 Daleks' Invasion Earth: 2150 A.D.
◎年  代 1966
◎产  地 英国
◎类  别 科幻
◎语  言 英语
◎上映日期 1966-08-05
◎IMDb评分 5.9/10 from 3971 users
◎IMDb链接 https://www.imdb.com/title/tt0060278/
◎豆瓣评分 7.1/10 from 132 users
◎豆瓣链接 https://douban.com/subject/1829198/
◎片  长 81 分钟
◎编  剧 特瑞·内辛 Terry Nation / 西德尼·纽曼 Sydney Newman / 米尔顿·苏博茨基 Milton Subotsky
◎主  演 彼得·库欣 Peter Cushing
      伯纳德·克理宾斯 Bernard Cribbins
      Roberta Tovey Roberta Tovey
      雷·布鲁克斯 Ray Brooks

◎简  介

     
  根据BBC电视剧《Doctor Who(神秘博士)》改编。一名叫做Tom Campbell的警察在个平常的日子里无意中闯入了TARDIS(全称译为“空间中的时间和相对尺度”,是种可以穿越时空的太空船,本来外形可以随所在地的环境变化,伪装成与环境协调的东西,但博士的TARDIS因一次事件,外形固定为1950年的蓝色公用电话警亭),结果被博士带到了2150年的地球。博士和他的助手发现,Dalek们侵略了地球,还把人类改造成机器人,阴谋对地球的核心进行开采。幸存的人们在四处躲藏,避免被改造成机器人。博士把幸存者们组织起来,挫败了Dalek们的阴谋。


DISC INFO:

Disc Title:     Daleks.Invasion.Earth.2150.A.D.1966.COMPLETE.UHD.BLURAY-GUHZER
Disc Size:      99,902,898,984 bytes
Protection:     AACS2
Extras:         Ultra HD, 50Hz Content
BDInfo:         0.7.5.9 (compatible layout created by DVDFab 12.0.7.3)

PLAYLIST REPORT:

Name:                   00001.MPLS  
Length:                 1:24:11.041 (h:m:s.ms)
Size:                   67,956,049,920 bytes
Total Bitrate:          107.63 Mbps

(*) Indicates included stream hidden by this playlist.

VIDEO:

Codec                   Bitrate             Description   
-----                   -------             -----------   
MPEG-H HEVC Video       94908 kbps          2160p / 24 fps / 16:9 / Main 10 @ Level 5.1 @ High / 4:2:0 / 10 bits / 1000nits / HDR10 / BT.2020
* MPEG-H HEVC Video     108 kbps (0.11%)    1080p / 24 fps / 16:9 / Main 10 @ Level 5.1 @ High / 4:2:0 / 10 bits / 1000nits / Dolby Vision MEL / BT.2020

AUDIO:

Codec                           Language        Bitrate         Description   
-----                           --------        -------         -----------   
LPCM Audio                      English         2304 kbps       2.0 / 48 kHz / 2304 kbps / 24-bit
LPCM Audio                      French          2304 kbps       2.0 / 48 kHz / 2304 kbps / 24-bit
LPCM Audio                      German          2304 kbps       2.0 / 48 kHz / 2304 kbps / 24-bit
* DTS Audio                     English         768 kbps        2.0 / 48 kHz / 768 kbps / 24-bit

SUBTITLES:

Codec                           Language        Bitrate         Description   
-----                           --------        -------         -----------   
Presentation Graphics           English         23.609 kbps                    
Presentation Graphics           French          17.582 kbps                    
Presentation Graphics           German          22.196 kbps                    
Presentation Graphics           French          0.08 kbps                     
Presentation Graphics           German          0.149 kbps                     
* Presentation Graphics         French          59.24 kbps   

Video
ID : 1
ID in the original source medium : 4113 (0x1011)
Format : HEVC
Format/Info : High Efficiency Video Coding
Format profile : Main [email protected]@High
HDR format : Dolby Vision, Version 1.0, dvhe.07.06, BL+EL+RPU, Blu-ray compatible / SMPTE ST 2086, HDR10 compatible
Codec ID : V_MPEGH/ISO/HEVC
Duration : 1 h 23 min
Bit rate : 94.9 Mb/s
Width : 3 840 pixels
Height : 2 160 pixels
Display aspect ratio : 16:9
Frame rate mode : Constant
Frame rate : 24.000 FPS
Color space : YUV
Chroma subsampling : 4:2:0 (Type 2)
Bit depth : 10 bits
Bits/(Pixel*Frame) : 0.477
Stream size : 55.6 GiB (93%)
Language : English
Default : No
Forced : No
Color range : Limited
Color primaries : BT.2020
Transfer characteristics : PQ
Matrix coefficients : BT.2020 non-constant
Mastering display color primaries : BT.2020
Mastering display luminance : min: 0.0001 cd/m2, max: 1000 cd/m2
Maximum Content Light Level : 1099 cd/m2
Maximum Frame-Average Light Level : 490 cd/m2
Original source medium : Blu-ray

Audio #1
ID : 2
ID in the original source medium : 4352 (0x1100)
Format : PCM
Format settings : Little / Signed
Codec ID : A_PCM/INT/LIT
Duration : 1 h 23 min
Bit rate mode : Constant
Bit rate : 2 304 kb/s
Channel(s) : 2 channels
Sampling rate : 48.0 kHz
Frame rate : 30.000 FPS (1600 SPF)
Bit depth : 24 bits
Stream size : 1.35 GiB (2%)
Title : LPCM 2.0
Language : English
Default : Yes
Forced : No
Original source medium : Blu-ray

Audio #2
ID : 3
Format : AC-3
Format/Info : Audio Coding 3
Commercial name : Dolby Digital
Codec ID : A_AC3
Duration : 1 h 23 min
Bit rate mode : Constant
Bit rate : 640 kb/s
Channel(s) : 2 channels
Channel layout : L R
Sampling rate : 48.0 kHz
Frame rate : 31.250 FPS (1536 SPF)
Compression mode : Lossy
Stream size : 384 MiB (1%)
Title : DD 2.0
Language : English
Service kind : Complete Main
Default : No
Forced : No

Audio #3
ID : 4
ID in the original source medium : 4353 (0x1101)
Format : PCM
Format settings : Little / Signed
Codec ID : A_PCM/INT/LIT
Duration : 1 h 23 min
Bit rate mode : Constant
Bit rate : 2 304 kb/s
Channel(s) : 2 channels
Sampling rate : 48.0 kHz
Frame rate : 30.000 FPS (1600 SPF)
Bit depth : 24 bits
Stream size : 1.35 GiB (2%)
Title : LPCM 2.0
Language : French
Default : No
Forced : No
Original source medium : Blu-ray

Audio #4
ID : 5
ID in the original source medium : 4354 (0x1102)
Format : PCM
Format settings : Little / Signed
Codec ID : A_PCM/INT/LIT
Duration : 1 h 23 min
Bit rate mode : Constant
Bit rate : 2 304 kb/s
Channel(s) : 2 channels
Sampling rate : 48.0 kHz
Frame rate : 30.000 FPS (1600 SPF)
Bit depth : 24 bits
Stream size : 1.35 GiB (2%)
Title : LPCM 2.0
Language : German
Default : No
Forced : No
Original source medium : Blu-ray

Text #1
ID : 6
Format : UTF-8
Codec ID : S_TEXT/UTF8
Codec ID/Info : UTF-8 Plain Text
Duration : 1 h 20 min
Bit rate : 39 b/s
Frame rate : 0.138 FPS
Count of elements : 667
Stream size : 23.3 KiB (0%)
Language : English
Default : Yes
Forced : No

Text #2
ID : 7
Format : UTF-8
Codec ID : S_TEXT/UTF8
Codec ID/Info : UTF-8 Plain Text
Duration : 1 h 22 min
Bit rate : 39 b/s
Frame rate : 0.143 FPS
Count of elements : 707
Stream size : 24.0 KiB (0%)
Title : SDH
Language : English
Default : No
Forced : No

Text #3
ID : 8
ID in the original source medium : 4768 (0x12A0)
Format : PGS
Muxing mode : zlib
Codec ID : S_HDMV/PGS
Codec ID/Info : Picture based subtitle format used on BDs/HD-DVDs
Duration : 1 h 22 min
Bit rate : 24.0 kb/s
Frame rate : 0.286 FPS
Count of elements : 1416
Stream size : 14.2 MiB (0%)
Language : English
Default : No
Forced : No
Original source medium : Blu-ray

Text #4
ID : 9
ID in the original source medium : 4769 (0x12A1)
Format : PGS
Muxing mode : zlib
Codec ID : S_HDMV/PGS
Codec ID/Info : Picture based subtitle format used on BDs/HD-DVDs
Duration : 1 h 21 min
Bit rate : 18.0 kb/s
Frame rate : 0.258 FPS
Count of elements : 1266
Stream size : 10.5 MiB (0%)
Language : French
Default : No
Forced : No
Original source medium : Blu-ray

Text #5
ID : 10
ID in the original source medium : 4770 (0x12A2)
Format : PGS
Muxing mode : zlib
Codec ID : S_HDMV/PGS
Codec ID/Info : Picture based subtitle format used on BDs/HD-DVDs
Duration : 1 h 21 min
Bit rate : 22.7 kb/s
Frame rate : 0.254 FPS
Count of elements : 1248
Stream size : 13.3 MiB (0%)
Language : German
Default : No
Forced : No
Original source medium : Blu-ray

Text #6
ID : 11
ID in the original source medium : 4771 (0x12A3)
Format : PGS
Muxing mode : zlib
Codec ID : S_HDMV/PGS
Codec ID/Info : Picture based subtitle format used on BDs/HD-DVDs
Duration : 38 min 0 s
Bit rate : 175 b/s
Frame rate : 0.002 FPS
Count of elements : 4
Stream size : 48.8 KiB (0%)
Title : FORCED
Language : French
Default : No
Forced : No
Original source medium : Blu-ray

Text #7
ID : 12
ID in the original source medium : 4772 (0x12A4)
Format : PGS
Muxing mode : zlib
Codec ID : S_HDMV/PGS
Codec ID/Info : Picture based subtitle format used on BDs/HD-DVDs
Duration : 38 min 0 s
Bit rate : 328 b/s
Frame rate : 0.002 FPS
Count of elements : 4
Stream size : 91.5 KiB (0%)
Title : FORCED
Language : German
Default : No
Forced : No
Original source medium : Blu-ray

Menu
00:00:00.000 : en:Chapter 00
00:08:27.291 : en:Chapter 01
00:14:56.208 : en:Chapter 02
00:23:46.916 : en:Chapter 03
00:31:04.041 : en:Chapter 04
00:36:56.083 : en:Chapter 05
00:43:59.041 : en:Chapter 06
00:50:49.250 : en:Chapter 07
00:56:59.833 : en:Chapter 08
01:04:08.125 : en:Chapter 09
01:09:45.250 : en:Chapter 10
01:16:43.708 : en:Chapter 11

本帖子中包含更多资源

您需要 登录 才可以下载或查看,没有帐号?立即注册

x
回复

使用道具 举报

您需要登录后才可以回帖 登录 | 立即注册

本版积分规则

QQ|Archiver|手机版|小黑屋|原盘天堂 好多盘 点击这里给我发消息

GMT+8, 2022-8-10 03:05 , Processed in 0.077928 second(s), 24 queries .

Powered by Discuz! X3.4

Copyright © 2001-2021, Tencent Cloud.

快速回复 返回顶部 返回列表