请选择 进入手机版 | 继续访问电脑版
本站Q群713428235【盘盘多】已满,请新会员加原盘天堂新官方QQ群709708625【好多盘】,验证信息填写您在论坛的会员名,不填会员名的无法入群哈,进群后修改您的群名片名字为您在论坛的会员名,请务必修改,否则群成员多了不知道您是哪个会员。

原盘天堂

 找回密码
 立即注册
京东商城当当华为商城名牌时尚折扣网,一个新型的网上购物平台,我们每周为您精选3~4个国际知名品牌,商品折扣低至2折限时限量售卖,商品囊括时装、护肤品、箱包、皮具、配饰、香水等等,琳琅满目。亿格瑞A10硬盘播放器 苏宁易购
查看: 112|回复: 0

4k蓝光原盘bdmv 愤怒的公牛 英语原版 raging.bull.1980.2160p.bluray.hevc.dts-hd.ma.2.0[85.6 GB]

[复制链接]

7075

主题

8089

帖子

134万

积分

管理员

Rank: 18Rank: 18Rank: 18Rank: 18Rank: 18

积分
1349889
发表于 2022-7-14 22:15:13 | 显示全部楼层 |阅读模式








◎译  名 愤怒的公牛/狂牛(港)/蛮牛(台)
◎片  名 Raging Bull
◎年  代 1980
◎产  地 美国
◎类  别 剧情/传记/运动
◎语  言 英语
◎上映日期 1980-11-14
◎IMDb评分 8.2/10 from 348511 users
◎IMDb链接 https://www.imdb.com/title/tt0081398/
◎豆瓣评分 8.4/10 from 50385 users
◎豆瓣链接 https://douban.com/subject/1293155/
◎片  长 129 分钟
◎导  演 马丁·斯科塞斯 Martin Scorsese
◎编  剧 杰克·拉莫塔 Jake LaMotta / 彼得·萨瓦奇 Peter Savage / 保罗·施拉德 Paul Schrader / 麦迪克·马丁 Mardik Martin / 马丁·斯科塞斯 Martin Scorsese
◎主  演 罗伯特·德尼罗 Robert De Niro
      凯西·莫拉蒂 Cathy Moriarty
      乔·佩西 Joe Pesci
      弗兰克·文森特 Frank Vincent
      尼可拉斯·科拉山多 Nicholas Colasanto
      特雷萨·萨尔达娜 Theresa Saldana
      马里奥加洛 Mario Gallo
      弗兰克·阿多尼斯 Frank Adonis
      Frank Topham Frank Topham
      查尔斯·斯科西斯 Charles Scorsese
      Don Dunphy Don Dunphy
      Bernie Allen Bernie Allen
      吉恩·拉贝尔 Gene LeBell
      Jimmy Lennon Sr. Jimmy Lennon Sr.
      谢伊·达芬 Shay Duffin
      Eddie Mustafa Muhammad Eddie Mustafa Muhammad
      Coley Wallace Coley Wallace
      George Latka George Latka
      Ken Richards Ken Richards
      Harvey Parry Harvey Parry
      Ted Husing Ted Husing
      迈克尔·巴达鲁科 Michael Badalucco
      Paul Forrest Paul Forrest
      杰拉尔丁·史密斯 Geraldine Smith
      麦迪克·马丁 Mardik Martin
      彼得·萨瓦奇 Peter Savage
      John Arceri John Arceri
      Allan Malamud Allan Malamud
      Richard McMurray Richard McMurray
      玛丽阿尔比 Mary Albee
      Candy Moore Candy Moore
      Richard A. Berk Richard A. Berk
      Wally K. Berns Wally K. Berns
      Glenn Leigh Marshall Glenn Leigh Marshall
      马丁·斯科塞斯 Martin Scorsese
      Vincent Barbi Vincent Barbi
       Scott Crawford
      罗伯特·达赫达赫 Robert Dahdah
      文森特·迪保罗 Vincent Di Paolo
      Bruno DiGiorgi Bruno DiGiorgi
      Marty Farrell Marty Farrell
      查克·希克斯 Chuck Hicks
      约翰·特托罗 John Turturro
      麦肯兹·怀斯摩尔 McKenzie Westmore

◎简  介

  
  杰克•拉莫塔(罗伯特•德尼罗 Robert De Niro 饰)出身于纽约的布鲁克林区。自小便进行拳击训练的杰克很快就在拳击界崭露头角,他因在比赛中出拳迅猛,打击对手毫不留情,表现得就像一头公牛,被称为“愤怒的公牛”。
  
  虽然杰克表现出色,但因为他为人耿直,不肯屈服于黑手党的安排,所以在当时他一直无缘于挑战拳王金腰带。在多次失意后,杰克终于向黑手党屈服,听从安排输掉了一场比赛。之后杰克如愿挑战了拳王并顺利加冕。
  
  加冕后的杰克不仅没有体会到预想中的兴奋,反而看透了拳击界的种种黑幕,决意退出。
  

◎获奖情况

  第53届奥斯卡金像奖 (1981)
  最佳影片(提名) 艾文·温克勒 / 罗伯特·恰托夫
  最佳导演(提名) 马丁·斯科塞斯
  最佳男主角 罗伯特·德尼罗
  最佳男配角(提名) 乔·佩西
  最佳女配角(提名) 凯西·莫拉蒂
  最佳摄影(提名) 迈克尔·查普曼
  最佳剪辑 塞尔玛·斯昆梅克
  最佳音响(提名) 比尔·尼科尔森 / 大卫·J·基姆博尔 / 莱斯·拉扎罗威茨 / 唐纳德·O·米切尔


DISC INFO:

Disc Title:     Raging.Bull.1980.2160p.BluRay.HEVC.DTS-HD.MA.2.0-HGN
Disc Size:      91,913,623,339 bytes
Protection:     AACS2
Extras:         Ultra HD, BD-Java
BDInfo:         0.7.5.9 (compatible layout created by DVDFab 12.0.7.3)

PLAYLIST REPORT:

Name:                   00001.MPLS  
Length:                 2:09:18.750 (h:m:s.ms)
Size:                   91,085,531,136 bytes
Total Bitrate:          93.92 Mbps

VIDEO:

Codec                   Bitrate             Description   
-----                   -------             -----------   
MPEG-H HEVC Video       86954 kbps          2160p / 23.976 fps / 16:9 / Main 10 @ Level 5.1 @ High / 4:2:0 / 10 bits / 1000nits / HDR10 / BT.2020

AUDIO:

Codec                           Language        Bitrate         Description   
-----                           --------        -------         -----------   
DTS-HD Master Audio             English         1984 kbps       2.0 / 48 kHz / 1984 kbps / 24-bit (DTS Core: 2.0 / 48 kHz / 1509 kbps / 24-bit)
Dolby Digital Audio             English         192 kbps        2.0 / 48 kHz / 192 kbps
Dolby Digital Audio             English         192 kbps        2.0 / 48 kHz / 192 kbps
Dolby Digital Audio             English         192 kbps        2.0 / 48 kHz / 192 kbps

SUBTITLES:

Codec                           Language        Bitrate         Description   
-----                           --------        -------         -----------   
Presentation Graphics           English         71.045 kbps         


Video
ID : 1
ID in the original source medium : 4113 (0x1011)
Format : HEVC
Format/Info : High Efficiency Video Coding
Format profile : Main [email protected]@High
HDR format : SMPTE ST 2086, HDR10 compatible
Codec ID : V_MPEGH/ISO/HEVC
Duration : 2 h 9 min
Bit rate : 87.0 Mb/s
Width : 3 840 pixels
Height : 2 160 pixels
Display aspect ratio : 16:9
Frame rate mode : Constant
Frame rate : 23.976 (24000/1001) FPS
Color space : YUV
Chroma subsampling : 4:2:0 (Type 2)
Bit depth : 10 bits
Bits/(Pixel*Frame) : 0.437
Stream size : 78.5 GiB (92%)
Language : English
Default : No
Forced : No
Color range : Limited
Color primaries : BT.2020
Transfer characteristics : PQ
Matrix coefficients : BT.2020 non-constant
Mastering display color primaries : BT.2020
Mastering display luminance : min: 0.0001 cd/m2, max: 1000 cd/m2
Maximum Content Light Level : 208 cd/m2
Maximum Frame-Average Light Level : 184 cd/m2
Original source medium : Blu-ray

Audio #1
ID : 2
ID in the original source medium : 4352 (0x1100)
Format : DTS XLL
Format/Info : Digital Theater Systems
Commercial name : DTS-HD Master Audio
Codec ID : A_DTS
Duration : 2 h 9 min
Bit rate mode : Variable
Bit rate : 3 829 kb/s
Channel(s) : 6 channels
Channel layout : C L R Ls Rs LFE
Sampling rate : 48.0 kHz
Frame rate : 93.750 FPS (512 SPF)
Bit depth : 24 bits
Compression mode : Lossless
Delay relative to video : 16 s 200 ms
Stream size : 3.45 GiB (4%)
Title : DTS-HD MA 5.1
Language : English
Default : Yes
Forced : No
Original source medium : Blu-ray

Audio #2
ID : 3
Format : AC-3
Format/Info : Audio Coding 3
Commercial name : Dolby Digital
Codec ID : A_AC3
Duration : 2 h 9 min
Bit rate mode : Constant
Bit rate : 640 kb/s
Channel(s) : 6 channels
Channel layout : L R C LFE Ls Rs
Sampling rate : 48.0 kHz
Frame rate : 31.250 FPS (1536 SPF)
Compression mode : Lossy
Stream size : 592 MiB (1%)
Title : DD 5.1
Language : English
Service kind : Complete Main
Default : No
Forced : No

Audio #3
ID : 4
ID in the original source medium : 4352 (0x1100)
Format : DTS XLL
Format/Info : Digital Theater Systems
Commercial name : DTS-HD Master Audio
Codec ID : A_DTS
Duration : 2 h 9 min
Bit rate mode : Variable
Bit rate : 1 984 kb/s
Channel(s) : 2 channels
Sampling rate : 48.0 kHz
Frame rate : 93.750 FPS (512 SPF)
Bit depth : 24 bits
Compression mode : Lossless
Stream size : 1.79 GiB (2%)
Title : DTS-HD MA 2.0
Language : English
Default : No
Forced : No
Original source medium : Blu-ray

Audio #4
ID : 5
ID in the original source medium : 4353 (0x1101)
Format : AC-3
Format/Info : Audio Coding 3
Commercial name : Dolby Digital
Codec ID : A_AC3
Duration : 2 h 9 min
Bit rate mode : Constant
Bit rate : 192 kb/s
Channel(s) : 2 channels
Channel layout : L R
Sampling rate : 48.0 kHz
Frame rate : 31.250 FPS (1536 SPF)
Compression mode : Lossy
Stream size : 178 MiB (0%)
Title : DD 2.0
Language : English
Service kind : Complete Main
Default : No
Forced : No
Original source medium : Blu-ray

Audio #5
ID : 6
ID in the original source medium : 4354 (0x1102)
Format : AC-3
Format/Info : Audio Coding 3
Commercial name : Dolby Digital
Codec ID : A_AC3
Duration : 2 h 9 min
Bit rate mode : Constant
Bit rate : 192 kb/s
Channel(s) : 2 channels
Channel layout : L R
Sampling rate : 48.0 kHz
Frame rate : 31.250 FPS (1536 SPF)
Compression mode : Lossy
Stream size : 178 MiB (0%)
Title : DD 2.0
Language : English
Service kind : Complete Main
Default : No
Forced : No
Original source medium : Blu-ray

Audio #6
ID : 7
ID in the original source medium : 4355 (0x1103)
Format : AC-3
Format/Info : Audio Coding 3
Commercial name : Dolby Digital
Codec ID : A_AC3
Duration : 2 h 9 min
Bit rate mode : Constant
Bit rate : 192 kb/s
Channel(s) : 2 channels
Channel layout : L R
Sampling rate : 48.0 kHz
Frame rate : 31.250 FPS (1536 SPF)
Compression mode : Lossy
Stream size : 178 MiB (0%)
Title : DD 2.0
Language : English
Service kind : Complete Main
Default : No
Forced : No
Original source medium : Blu-ray

Text #1
ID : 8
Format : UTF-8
Codec ID : S_TEXT/UTF8
Codec ID/Info : UTF-8 Plain Text
Duration : 2 h 0 min
Bit rate : 83 b/s
Frame rate : 0.256 FPS
Count of elements : 1856
Stream size : 73.7 KiB (0%)
Language : English
Default : Yes
Forced : No

Text #2
ID : 9
Format : UTF-8
Codec ID : S_TEXT/UTF8
Codec ID/Info : UTF-8 Plain Text
Duration : 2 h 8 min
Bit rate : 84 b/s
Frame rate : 0.264 FPS
Count of elements : 2036
Stream size : 80.0 KiB (0%)
Title : SDH
Language : English
Default : No
Forced : No

Text #3
ID : 10
ID in the original source medium : 4608 (0x1200)
Format : PGS
Muxing mode : zlib
Codec ID : S_HDMV/PGS
Codec ID/Info : Picture based subtitle format used on BDs/HD-DVDs
Duration : 2 h 8 min
Bit rate : 71.6 kb/s
Frame rate : 0.529 FPS
Count of elements : 4088
Stream size : 65.9 MiB (0%)
Language : English
Default : No
Forced : No
Original source medium : Blu-ray

Text #4
ID : 11
ID in the original source medium : 4609 (0x1201)
Format : PGS
Muxing mode : zlib
Codec ID : S_HDMV/PGS
Codec ID/Info : Picture based subtitle format used on BDs/HD-DVDs
Duration : 2 h 1 min
Bit rate : 45.8 kb/s
Frame rate : 0.456 FPS
Count of elements : 3332
Stream size : 39.9 MiB (0%)
Language : French
Default : No
Forced : No
Original source medium : Blu-ray

Text #5
ID : 12
ID in the original source medium : 4610 (0x1202)
Format : PGS
Muxing mode : zlib
Codec ID : S_HDMV/PGS
Codec ID/Info : Picture based subtitle format used on BDs/HD-DVDs
Duration : 2 h 1 min
Bit rate : 1 323 b/s
Frame rate : 0.012 FPS
Count of elements : 86
Stream size : 1.15 MiB (0%)
Language : French
Default : No
Forced : No
Original source medium : Blu-ray

Text #6
ID : 13
ID in the original source medium : 4611 (0x1203)
Format : PGS
Muxing mode : zlib
Codec ID : S_HDMV/PGS
Codec ID/Info : Picture based subtitle format used on BDs/HD-DVDs
Duration : 2 h 1 min
Bit rate : 34.2 kb/s
Frame rate : 0.334 FPS
Count of elements : 2440
Stream size : 29.8 MiB (0%)
Language : German
Default : No
Forced : No
Original source medium : Blu-ray

Text #7
ID : 14
ID in the original source medium : 4612 (0x1204)
Format : PGS
Muxing mode : zlib
Codec ID : S_HDMV/PGS
Codec ID/Info : Picture based subtitle format used on BDs/HD-DVDs
Duration : 2 h 1 min
Bit rate : 182 b/s
Frame rate : 0.002 FPS
Count of elements : 16
Stream size : 163 KiB (0%)
Language : German
Default : No
Forced : No
Original source medium : Blu-ray

Text #8
ID : 15
ID in the original source medium : 4613 (0x1205)
Format : PGS
Muxing mode : zlib
Codec ID : S_HDMV/PGS
Codec ID/Info : Picture based subtitle format used on BDs/HD-DVDs
Duration : 2 h 1 min
Bit rate : 29.2 kb/s
Frame rate : 0.333 FPS
Count of elements : 2430
Stream size : 25.5 MiB (0%)
Language : Italian
Default : No
Forced : No
Original source medium : Blu-ray

Text #9
ID : 16
ID in the original source medium : 4614 (0x1206)
Format : PGS
Muxing mode : zlib
Codec ID : S_HDMV/PGS
Codec ID/Info : Picture based subtitle format used on BDs/HD-DVDs
Duration : 2 h 1 min
Bit rate : 424 b/s
Frame rate : 0.004 FPS
Count of elements : 32
Stream size : 379 KiB (0%)
Language : Italian
Default : No
Forced : No
Original source medium : Blu-ray

Text #10
ID : 17
ID in the original source medium : 4615 (0x1207)
Format : PGS
Muxing mode : zlib
Codec ID : S_HDMV/PGS
Codec ID/Info : Picture based subtitle format used on BDs/HD-DVDs
Duration : 2 h 1 min
Bit rate : 30.0 kb/s
Frame rate : 0.330 FPS
Count of elements : 2410
Stream size : 26.1 MiB (0%)
Language : Spanish
Default : No
Forced : No
Original source medium : Blu-ray

Text #11
ID : 18
ID in the original source medium : 4617 (0x1209)
Format : PGS
Muxing mode : zlib
Codec ID : S_HDMV/PGS
Codec ID/Info : Picture based subtitle format used on BDs/HD-DVDs
Duration : 2 h 1 min
Bit rate : 30.4 kb/s
Frame rate : 0.332 FPS
Count of elements : 2426
Stream size : 26.5 MiB (0%)
Language : Dutch
Default : No
Forced : No
Original source medium : Blu-ray

Text #12
ID : 19
ID in the original source medium : 4618 (0x120A)
Format : PGS
Muxing mode : zlib
Codec ID : S_HDMV/PGS
Codec ID/Info : Picture based subtitle format used on BDs/HD-DVDs
Duration : 2 h 1 min
Bit rate : 30.2 kb/s
Frame rate : 0.333 FPS
Count of elements : 2430
Stream size : 26.3 MiB (0%)
Language : Danish
Default : No
Forced : No
Original source medium : Blu-ray

Text #13
ID : 20
ID in the original source medium : 4619 (0x120B)
Format : PGS
Muxing mode : zlib
Codec ID : S_HDMV/PGS
Codec ID/Info : Picture based subtitle format used on BDs/HD-DVDs
Duration : 2 h 1 min
Bit rate : 29.8 kb/s
Frame rate : 0.333 FPS
Count of elements : 2430
Stream size : 25.9 MiB (0%)
Language : Finnish
Default : No
Forced : No
Original source medium : Blu-ray

Text #14
ID : 21
ID in the original source medium : 4620 (0x120C)
Format : PGS
Muxing mode : zlib
Codec ID : S_HDMV/PGS
Codec ID/Info : Picture based subtitle format used on BDs/HD-DVDs
Duration : 2 h 1 min
Bit rate : 28.7 kb/s
Frame rate : 0.333 FPS
Count of elements : 2432
Stream size : 25.0 MiB (0%)
Language : Norwegian
Default : No
Forced : No
Original source medium : Blu-ray

Text #15
ID : 22
ID in the original source medium : 4621 (0x120D)
Format : PGS
Muxing mode : zlib
Codec ID : S_HDMV/PGS
Codec ID/Info : Picture based subtitle format used on BDs/HD-DVDs
Duration : 2 h 1 min
Bit rate : 32.2 kb/s
Frame rate : 0.347 FPS
Count of elements : 2536
Stream size : 28.1 MiB (0%)
Language : Swedish
Default : No
Forced : No
Original source medium : Blu-ray

Text #16
ID : 23
ID in the original source medium : 4622 (0x120E)
Format : PGS
Muxing mode : zlib
Codec ID : S_HDMV/PGS
Codec ID/Info : Picture based subtitle format used on BDs/HD-DVDs
Duration : 2 h 1 min
Bit rate : 22.6 kb/s
Frame rate : 0.392 FPS
Count of elements : 2865
Stream size : 19.7 MiB (0%)
Language : Japanese
Default : No
Forced : No
Original source medium : Blu-ray

Text #17
ID : 24
ID in the original source medium : 4623 (0x120F)
Format : PGS
Muxing mode : zlib
Codec ID : S_HDMV/PGS
Codec ID/Info : Picture based subtitle format used on BDs/HD-DVDs
Duration : 2 h 3 min
Bit rate : 32.2 kb/s
Frame rate : 0.308 FPS
Count of elements : 2286
Stream size : 28.5 MiB (0%)
Language : Estonian
Default : No
Forced : No
Original source medium : Blu-ray

Text #18
ID : 25
ID in the original source medium : 4624 (0x1210)
Format : PGS
Muxing mode : zlib
Codec ID : S_HDMV/PGS
Codec ID/Info : Picture based subtitle format used on BDs/HD-DVDs
Duration : 2 h 1 min
Bit rate : 31.0 kb/s
Frame rate : 0.301 FPS
Count of elements : 2201
Stream size : 27.0 MiB (0%)
Language : Bulgarian
Default : No
Forced : No
Original source medium : Blu-ray

Text #19
ID : 26
ID in the original source medium : 4625 (0x1211)
Format : PGS
Muxing mode : zlib
Codec ID : S_HDMV/PGS
Codec ID/Info : Picture based subtitle format used on BDs/HD-DVDs
Duration : 2 h 1 min
Bit rate : 30.5 kb/s
Frame rate : 0.331 FPS
Count of elements : 2416
Stream size : 26.6 MiB (0%)
Language : Croatian
Default : No
Forced : No
Original source medium : Blu-ray

Text #20
ID : 27
ID in the original source medium : 4626 (0x1212)
Format : PGS
Muxing mode : zlib
Codec ID : S_HDMV/PGS
Codec ID/Info : Picture based subtitle format used on BDs/HD-DVDs
Duration : 2 h 1 min
Bit rate : 34.5 kb/s
Frame rate : 0.317 FPS
Count of elements : 2318
Stream size : 30.0 MiB (0%)
Language : Slovenian
Default : No
Forced : No
Original source medium : Blu-ray

Text #21
ID : 28
ID in the original source medium : 4627 (0x1213)
Format : PGS
Muxing mode : zlib
Codec ID : S_HDMV/PGS
Codec ID/Info : Picture based subtitle format used on BDs/HD-DVDs
Duration : 2 h 1 min
Bit rate : 25.4 kb/s
Frame rate : 0.347 FPS
Count of elements : 2536
Stream size : 22.2 MiB (0%)
Language : Greek
Default : No
Forced : No
Original source medium : Blu-ray

Text #22
ID : 29
ID in the original source medium : 4628 (0x1214)
Format : PGS
Muxing mode : zlib
Codec ID : S_HDMV/PGS
Codec ID/Info : Picture based subtitle format used on BDs/HD-DVDs
Duration : 2 h 3 min
Bit rate : 24.7 kb/s
Frame rate : 0.345 FPS
Count of elements : 2568
Stream size : 21.9 MiB (0%)
Language : Hebrew
Default : No
Forced : No
Original source medium : Blu-ray

Text #23
ID : 30
ID in the original source medium : 4629 (0x1215)
Format : PGS
Muxing mode : zlib
Codec ID : S_HDMV/PGS
Codec ID/Info : Picture based subtitle format used on BDs/HD-DVDs
Duration : 1 h 58 min
Bit rate : 824 b/s
Frame rate : 0.015 FPS
Count of elements : 107
Stream size : 715 KiB (0%)
Language : English
Default : No
Forced : No
Original source medium : Blu-ray

Menu
00:00:00.000 : en:Chapter 01
00:03:08.730 : en:Chapter 02
00:07:59.687 : en:Chapter 03
00:15:19.877 : en:Chapter 04
00:17:30.007 : en:Chapter 05
00:24:22.711 : en:Chapter 06
00:31:39.856 : en:Chapter 07
00:38:20.006 : en:Chapter 08
00:41:32.781 : en:Chapter 09
00:44:07.353 : en:Chapter 10
00:49:45.357 : en:Chapter 11
00:57:17.517 : en:Chapter 12
00:59:19.597 : en:Chapter 13
01:06:44.208 : en:Chapter 14
01:13:55.264 : en:Chapter 15
01:18:37.587 : en:Chapter 16
01:22:21.728 : en:Chapter 17
01:34:09.435 : en:Chapter 18
01:41:50.187 : en:Chapter 19
01:49:34.859 : en:Chapter 20
01:57:23.077 : en:Chapter 21
02:01:18.646 : en:Chapter 22
02:04:12.361 : en:Chapter 23

本帖子中包含更多资源

您需要 登录 才可以下载或查看,没有帐号?立即注册

x
回复

使用道具 举报

您需要登录后才可以回帖 登录 | 立即注册

本版积分规则

QQ|Archiver|手机版|小黑屋|原盘天堂 好多盘 点击这里给我发消息

GMT+8, 2022-8-10 05:01 , Processed in 0.049277 second(s), 24 queries .

Powered by Discuz! X3.4

Copyright © 2001-2021, Tencent Cloud.

快速回复 返回顶部 返回列表