请选择 进入手机版 | 继续访问电脑版
本站Q群713428235【盘盘多】已满,请新会员加原盘天堂新官方QQ群709708625【好多盘】,验证信息填写您在论坛的会员名,不填会员名的无法入群哈,进群后修改您的群名片名字为您在论坛的会员名,请务必修改,否则群成员多了不知道您是哪个会员。

原盘天堂

 找回密码
 立即注册
京东商城当当华为商城名牌时尚折扣网,一个新型的网上购物平台,我们每周为您精选3~4个国际知名品牌,商品折扣低至2折限时限量售卖,商品囊括时装、护肤品、箱包、皮具、配饰、香水等等,琳琅满目。亿格瑞A10硬盘播放器 苏宁易购
查看: 83|回复: 0

4k蓝光原盘bdmv 花容劫 英语原版 faceless.1987.2160p.bluray.hevc.dts-hd.ma.2.0[59.83 GB]

[复制链接]

7075

主题

8089

帖子

134万

积分

管理员

Rank: 18Rank: 18Rank: 18Rank: 18Rank: 18

积分
1349889
发表于 2022-7-12 08:49:16 | 显示全部楼层 |阅读模式








◎译  名 花容劫/姓名不详/Les Predateurs De La Nuit/Los depredadores de la noche
◎片  名 Faceless
◎年  代 1987
◎产  地 西班牙/法国
◎类  别 惊悚/恐怖
◎语  言 英语
◎上映日期 1987-09(美国)
◎IMDb评分 5.8/10 from 1457 users
◎IMDb链接 https://www.imdb.com/title/tt0095125/
◎豆瓣评分 6.5/10 from 276 users
◎豆瓣链接 https://douban.com/subject/1506959/
◎片  长 98 分钟
◎导  演 赫苏斯·佛朗哥 Jesus Franco
◎编  剧 René Chateau René Chateau / 赫苏斯·佛朗哥 Jesus Franco / 米歇尔·勒布伦 Michel Lebrun
◎主  演 赫尔穆特·贝格 Helmut Berger
      碧姬·莱尔 Brigitte Lahaie
      特利·萨瓦拉斯 Telly Savalas
      克里斯托弗·米彻姆 Christopher Mitchum
      斯特凡·奥德朗 Stéphane Audran
      卡罗琳·莫罗 Caroline Munro
      克里斯汀·简 Christiane Jean
      安东·迪夫伦 Anton Diffring
      Tilda Thamar Tilda Thamar
      霍华德·沃侬 Howard Vernon
      弗洛伦丝·格林 Florence Guérin
      亨利·普瓦里耶 Henri Poirier
      莫妮·达尔梅斯 Mony Dalmès
      Daniel Beretta Daniel Beretta
      莉娜·罗迈 Lina Romay

◎简  介

  
  弗蒙(赫尔穆特·贝格 Helmut Berger 饰)是一名美容医生,表面看来,他衣冠楚楚非常值得信赖,但实际上,他的内心里藏着许许多多的邪恶想法。这么多年来,他一直联手残忍的院长尼坦丽(碧姬·莱尔 Brigitte Lahaie 饰),干着绑架妙龄少女的勾当,他们将少女残忍杀死,抽出她们的骨髓和鲜血,制成能够回春的美容药物,卖给阔太太们。
  
  终于有一天,弗蒙遭到了受害者亲人的报复,可是倒霉的却是他的妹妹英格(Christiane Jean 饰)。英格的脸遭到了硫酸毁容,痛心疾首的弗蒙发誓一定要让妹妹恢复美貌,于是开始绑架美女,剥下她们的面皮,试图嫁接到英格的脸上,但这些试验无一不失败了。


DISC INFO:

Disc Title:     Faceless.1987.2160p.BluRay.HEVC.DTS-HD.MA.2.0-FULLBRUTALiTY
Disc Size:      64,237,825,584 bytes
Protection:     AACS2
Extras:         Ultra HD
BDInfo:         0.7.5.9 (compatible layout created by DVDFab 12.0.7.3)

PLAYLIST REPORT:

Name:                   00005.MPLS  
Length:                 1:39:13.781 (h:m:s.ms)
Size:                   61,378,523,136 bytes
Total Bitrate:          82.47 Mbps

VIDEO:

Codec                   Bitrate             Description   
-----                   -------             -----------   
MPEG-H HEVC Video       73928 kbps          2160p / 23.976 fps / 16:9 / Main 10 @ Level 5.1 @ High / 4:2:0 / 10 bits / 1000nits / HDR10 / BT.2020

AUDIO:

Codec                           Language        Bitrate         Description   
-----                           --------        -------         -----------   
DTS-HD Master Audio             English         2125 kbps       2.0 / 48 kHz / 2125 kbps / 24-bit (DTS Core: 2.0 / 48 kHz / 1509 kbps / 24-bit)
DTS-HD Master Audio             French          2136 kbps       2.0 / 48 kHz / 2136 kbps / 24-bit (DTS Core: 2.0 / 48 kHz / 1509 kbps / 24-bit)
Dolby Digital Audio             French          224 kbps        2.0 / 48 kHz / 224 kbps

SUBTITLES:

Codec                           Language        Bitrate         Description   
-----                           --------        -------         -----------   
Presentation Graphics           English         34.894 kbps                    
Presentation Graphics           English         37.536 kbps  


Video
ID : 1
ID in the original source medium : 4113 (0x1011)
Format : HEVC
Format/Info : High Efficiency Video Coding
Format profile : Main [email protected]@High
HDR format : SMPTE ST 2086, HDR10 compatible
Codec ID : V_MPEGH/ISO/HEVC
Duration : 1 h 39 min
Bit rate : 73.9 Mb/s
Width : 3 840 pixels
Height : 2 160 pixels
Display aspect ratio : 16:9
Frame rate mode : Constant
Frame rate : 23.976 (24000/1001) FPS
Color space : YUV
Chroma subsampling : 4:2:0 (Type 2)
Bit depth : 10 bits
Bits/(Pixel*Frame) : 0.372
Stream size : 51.2 GiB (93%)
Writing library : x265 3.4+26-ga82c6c7a7:[Windows][MSVC 1927][64 bit] 10bit
Encoding settings : cpuid=1111039 / frame-threads=6 / numa-pools=32,32 / wpp / no-pmode / no-pme / no-psnr / no-ssim / log-level=2 / input-csp=1 / input-res=3840x2160 / interlace=0 / total-frames=142748 / level-idc=51 / high-tier=1 / uhd-bd=1 / ref=4 / no-allow-non-conformance / repeat-headers / annexb / aud / hrd / info / hash=0 / no-temporal-layers / no-open-gop / min-keyint=1 / keyint=24 / gop-lookahead=0 / bframes=3 / b-adapt=2 / b-pyramid / bframe-bias=0 / rc-lookahead=24 / lookahead-slices=4 / scenecut=40 / hist-scenecut=0 / radl=0 / no-splice / no-intra-refresh / ctu=64 / min-cu-size=8 / rect / no-amp / max-tu-size=32 / tu-inter-depth=1 / tu-intra-depth=1 / limit-tu=0 / rdoq-level=2 / dynamic-rd=0.00 / no-ssim-rd / signhide / no-tskip / nr-intra=0 / nr-inter=0 / no-constrained-intra / strong-intra-smoothing / max-merge=3 / limit-refs=3 / limit-modes / me=3 / subme=3 / merange=57 / temporal-mvp / no-frame-dup / no-hme / weightp / no-weightb / no-analyze-src-pics / deblock=0:0 / no-sao / no-sao-non-deblock / rd=4 / selective-sao=0 / no-early-skip / no-rskip / no-fast-intra / no-tskip-fast / no-cu-lossless / no-b-intra / no-splitrd-skip / rdpenalty=0 / psy-rd=4.00 / psy-rdoq=10.00 / no-rd-refine / no-lossless / cbqpoffs=0 / crqpoffs=0 / rc=abr / bitrate=74000 / qcomp=0.60 / qpstep=1 / stats-write=0 / stats-read=2 / cplxblur=20.0 / qblur=0.5 / vbv-maxrate=92000 / vbv-bufsize=96000 / vbv-init=0.9 / min-vbv-fullness=50.0 / max-vbv-fullness=80.0 / ipratio=1.10 / pbratio=1.00 / aq-mode=0 / aq-strength=0.00 / no-cutree / zone-count=0 / no-strict-cbr / qg-size=32 / rc-grain / qpmax=69 / qpmin=0 / const-vbv / sar=1 / overscan=0 / videoformat=5 / range=0 / colorprim=9 / transfer=16 / colormatrix=9 / chromaloc=1 / chromaloc-top=2 / chromaloc-bottom=2 / display-window=0 / master-display=G(13250,34500)B(7500,3000)R(34000,16000)WP(15635,16450)L(10000000,1) / cll=1000,400 / min-luma=0 / max-luma=1023 / log2-max-poc-lsb=8 / vui-timing-info / vui-hrd-info / slices=1 / no-opt-qp-pps / no-opt-ref-list-length-pps / no-multi-pass-opt-rps / scenecut-bias=0.05 / hist-threshold=0.03 / no-opt-cu-delta-qp / no-aq-motion / hdr10 / hdr10-opt / no-dhdr10-opt / no-idr-recovery-sei / analysis-reuse-level=0 / analysis-save-reuse-level=0 / analysis-load-reuse-level=0 / scale-factor=0 / refine-intra=0 / refine-inter=0 / refine-mv=1 / refine-ctu-distortion=0 / no-limit-sao / ctu-info=0 / no-lowpass-dct / refine-analysis-type=0 / copy-pic=1 / max-ausize-factor=1.0 / no-dynamic-refine / no-single-sei / no-hevc-aq / no-svt / no-field / qp-adaptation-range=1.00 / no-scenecut-aware-qpconformance-window-offsets / right=0 / bottom=0 / decoder-max-rate=0 / no-vbv-live-multi-pass
Language : English
Default : No
Forced : No
Color range : Limited
Color primaries : BT.2020
Transfer characteristics : PQ
Matrix coefficients : BT.2020 non-constant
Mastering display color primaries : Display P3
Mastering display luminance : min: 0.0001 cd/m2, max: 1000 cd/m2
Maximum Content Light Level : 1000 cd/m2
Maximum Frame-Average Light Level : 400 cd/m2
Original source medium : Blu-ray

Audio #1
ID : 2
ID in the original source medium : 4352 (0x1100)
Format : DTS XLL
Format/Info : Digital Theater Systems
Commercial name : DTS-HD Master Audio
Codec ID : A_DTS
Duration : 1 h 39 min
Bit rate mode : Variable
Bit rate : 2 125 kb/s
Channel(s) : 2 channels
Channel layout : L R
Sampling rate : 48.0 kHz
Frame rate : 93.750 FPS (512 SPF)
Bit depth : 24 bits
Compression mode : Lossless
Stream size : 1.47 GiB (3%)
Title : DTS-HD MA 2.0
Language : English
Default : Yes
Forced : No
Original source medium : Blu-ray

Audio #2
ID : 3
Format : AC-3
Format/Info : Audio Coding 3
Commercial name : Dolby Digital
Codec ID : A_AC3
Duration : 1 h 39 min
Bit rate mode : Constant
Bit rate : 640 kb/s
Channel(s) : 2 channels
Channel layout : L R
Sampling rate : 48.0 kHz
Frame rate : 31.250 FPS (1536 SPF)
Compression mode : Lossy
Stream size : 454 MiB (1%)
Title : DD 2.0
Language : English
Service kind : Complete Main
Default : No
Forced : No

Audio #3
ID : 4
ID in the original source medium : 4353 (0x1101)
Format : DTS XLL
Format/Info : Digital Theater Systems
Commercial name : DTS-HD Master Audio
Codec ID : A_DTS
Duration : 1 h 39 min
Bit rate mode : Variable
Bit rate : 2 136 kb/s
Channel(s) : 2 channels
Channel layout : L R
Sampling rate : 48.0 kHz
Frame rate : 93.750 FPS (512 SPF)
Bit depth : 24 bits
Compression mode : Lossless
Stream size : 1.48 GiB (3%)
Title : DTS-HD MA 2.0
Language : French
Default : No
Forced : No
Original source medium : Blu-ray

Audio #4
ID : 5
ID in the original source medium : 4354 (0x1102)
Format : AC-3
Format/Info : Audio Coding 3
Commercial name : Dolby Digital
Codec ID : A_AC3
Duration : 1 h 39 min
Bit rate mode : Constant
Bit rate : 224 kb/s
Channel(s) : 2 channels
Channel layout : L R
Sampling rate : 48.0 kHz
Frame rate : 31.250 FPS (1536 SPF)
Compression mode : Lossy
Stream size : 159 MiB (0%)
Title : DD 2.0
Language : French
Service kind : Complete Main
Default : No
Forced : No
Original source medium : Blu-ray

Text #1
ID : 6
Format : UTF-8
Codec ID : S_TEXT/UTF8
Codec ID/Info : UTF-8 Plain Text
Duration : 1 h 37 min
Bit rate : 62 b/s
Frame rate : 0.182 FPS
Count of elements : 1067
Stream size : 45.0 KiB (0%)
Language : English
Default : Yes
Forced : No

Text #2
ID : 7
Format : UTF-8
Codec ID : S_TEXT/UTF8
Codec ID/Info : UTF-8 Plain Text
Duration : 1 h 37 min
Bit rate : 64 b/s
Frame rate : 0.182 FPS
Count of elements : 1067
Stream size : 46.5 KiB (0%)
Title : SDH
Language : English
Default : No
Forced : No

Text #3
ID : 8
ID in the original source medium : 4768 (0x12A0)
Format : PGS
Muxing mode : zlib
Codec ID : S_HDMV/PGS
Codec ID/Info : Picture based subtitle format used on BDs/HD-DVDs
Duration : 1 h 38 min
Bit rate : 35.0 kb/s
Frame rate : 0.392 FPS
Count of elements : 2325
Stream size : 24.8 MiB (0%)
Language : English
Default : No
Forced : No
Original source medium : Blu-ray

Text #4
ID : 9
ID in the original source medium : 4769 (0x12A1)
Format : PGS
Muxing mode : zlib
Codec ID : S_HDMV/PGS
Codec ID/Info : Picture based subtitle format used on BDs/HD-DVDs
Duration : 1 h 37 min
Bit rate : 38.1 kb/s
Frame rate : 0.360 FPS
Count of elements : 2113
Stream size : 26.6 MiB (0%)
Language : English
Default : No
Forced : No
Original source medium : Blu-ray

Menu
00:00:00.000 : en:Chapter 01
00:08:11.199 : en:Chapter 02
00:16:06.298 : en:Chapter 03
00:25:42.624 : en:Chapter 04
00:33:38.516 : en:Chapter 05
00:41:57.848 : en:Chapter 06
00:50:54.593 : en:Chapter 07
00:57:12.470 : en:Chapter 08
01:06:02.333 : en:Chapter 09
01:13:54.179 : en:Chapter 10
01:24:52.879 : en:Chapter 11
01:31:24.854 : en:Chapter 12

本帖子中包含更多资源

您需要 登录 才可以下载或查看,没有帐号?立即注册

x
回复

使用道具 举报

您需要登录后才可以回帖 登录 | 立即注册

本版积分规则

QQ|Archiver|手机版|小黑屋|原盘天堂 好多盘 点击这里给我发消息

GMT+8, 2022-8-10 03:04 , Processed in 0.044733 second(s), 24 queries .

Powered by Discuz! X3.4

Copyright © 2001-2021, Tencent Cloud.

快速回复 返回顶部 返回列表