请选择 进入手机版 | 继续访问电脑版
本站Q群713428235【盘盘多】已满,请新会员加原盘天堂新官方QQ群709708625【好多盘】,验证信息填写您在论坛的会员名,不填会员名的无法入群哈,进群后修改您的群名片名字为您在论坛的会员名,请务必修改,否则群成员多了不知道您是哪个会员。

原盘天堂

 找回密码
 立即注册
京东商城当当华为商城名牌时尚折扣网,一个新型的网上购物平台,我们每周为您精选3~4个国际知名品牌,商品折扣低至2折限时限量售卖,商品囊括时装、护肤品、箱包、皮具、配饰、香水等等,琳琅满目。亿格瑞A10硬盘播放器 苏宁易购
查看: 89|回复: 4

4k蓝光原盘bdmv 龙牌之谜 英语原版 journey.to.china.the.mystery.of.iron.mask.2019.2160p.bluray.hevc.dts-hd.ma.5.1[56.02 GB]

[复制链接]

6023

主题

6690

帖子

133万

积分

管理员

Rank: 18Rank: 18Rank: 18Rank: 18Rank: 18

积分
1332455
发表于 5 天前 | 显示全部楼层 |阅读模式








◎译  名 龙牌之谜/魔鬼的精神2/中国游记:龙牌之谜/Journey to China: The Secret of the Seal of the Dragon/Mystery of Dragon's Seal/Viy 2/Вий 2/Тайна Печати дракона: Путешествие в Китай
◎片  名 Тайна печати дракона
◎年  代 2019
◎产  地 俄罗斯/中国大陆/美国
◎类  别 动作/奇幻/冒险
◎语  言 英语/俄语/汉语普通话
◎上映日期 2019-08-16(中国大陆)
◎IMDb链接  https://www.imdb.com/title/tt6218010/
◎豆瓣评分 3.6/10 from 15573 users
◎豆瓣链接 https://douban.com/subject/26367602/
◎片  长 120分钟
◎导  演 伊哥·斯坦普陈科 Oleg Stepchenko
◎编  剧 阿列克谢·彼得鲁欣 Alexey A. Petrukhin / 伊哥·斯坦普陈科 Oleg Stepchenko
◎主  演 成龙 Jackie Chan
       阿诺·施瓦辛格 Arnold Schwarzenegger
       杰森·弗莱明 Jason Flemyng
       姚星彤 Xingtong Yao
       马丽 Li Ma
       李彧 Yu Li
       刘智福 Lance Luu
       刘智堂 Charles Luu
       刘智满 Mark Luu
       李萌萌 Mengmeng Li
       安娜·邱丽娜 Anna Churina
       尤里·科洛科利尼科夫 Yuri Kolokolnikov
       巴维尔·沃利亚 Pavel Volya
       克里斯托弗·法里班克 Christopher Fairbank
       马丁·科勒巴 Martin Klebba
       查尔斯·丹斯 Charles Dance
       鲁特格尔·哈尔 Rutger Hauer
       巴雷特·科茨 Barret Coates
       伊戈尔·日日金 Igor Jijikin
       娜露潘格慕·柴辛 Narupornkamol Chaisang
       安德烈·梅尔兹利金 Andrey Merzlikin
       维伦·巴比切夫 Vilen Babichev
       苼楠塔茬·塔纳潘披散 Sananthachat Thanapatpisal
       彼得·拉斐尔森 Peter Rafelson
       尼基塔·塔拉索夫 Nikita Tarasov
       阿列克谢·彼得鲁欣 Alexey A. Petrukhin
       葵咪莎拉·普碟 Kemisara Paladesh
       安东尼·加瓦德 Anthony Gavard
       马蒂厄·雅克 Mathieu Jaquet
       莱安德罗·梅厄·马丁内斯 Leandro Mayor Martinez
       赵婉瑜 Wanyu Zhao
       梁新展 Xinzhan Liang
       李建桥 Lijianqiao
       查雅妮·臣姗卡维 Chayanit Chansangavej

◎标  签 奇幻 | 动作 | 中国 | 魔幻 | 冒险 | 2019 | 俄罗斯 | 阿诺德·施瓦辛格

◎简  介

  
  电影《龙牌之谜》讲述了古老的东方传说——龙王在睡觉的时候睫毛长到地里能够长出茶叶。龙王把法力封印在龙牌里,并把这种力量赋予了替他照料睫毛的白魔法大师(成龙饰)和他的女儿成兰(姚星彤饰)。邪恶的黑魔法师将白魔法大师和成兰关进了异国监狱,龙王也陷入了沉睡,以茶叶为生的广大村民从此生活在水深火热之中……
  

◎获奖情况

  第41届金酸莓奖  (2021)
  最差男配角(提名) 阿诺·施瓦辛格

DISC INFO:

Disc Title:     Journey.to.China.The.Mystery.of.Iron.Mask.2019.2160p.BluRay.HEVC.DTS-HD.MA.5.1-SharpHD
Disc Size:      60,149,941,449 bytes
Protection:     AACS2
Extras:         Ultra HD
BDInfo:         0.7.5.9 (compatible layout created by DVDFab 12.0.3.2)

PLAYLIST REPORT:

Name:                   00000.MPLS  
Length:                 2:00:39.065 (h:m:s.ms)
Size:                   53,792,735,232 bytes
Total Bitrate:          59.45 Mbps

VIDEO:

Codec                   Bitrate             Description     
-----                   -------             -----------     
MPEG-H HEVC Video       51948 kbps          2160p / 23.976 fps / 16:9 / Main 10 @ Level 5.1 @ High / 4:2:0 / 10 bits / 1000nits / HDR10 / BT.2020

AUDIO:

Codec                           Language        Bitrate         Description     
-----                           --------        -------         -----------     
DTS-HD Master Audio             German          2250 kbps       5.1 / 48 kHz / 2250 kbps / 16-bit (DTS Core: 5.1 / 48 kHz / 1509 kbps / 16-bit)
DTS-HD Master Audio             English         2208 kbps       5.1 / 48 kHz / 2208 kbps / 16-bit (DTS Core: 5.1 / 48 kHz / 1509 kbps / 16-bit)

SUBTITLES:

Codec                           Language        Bitrate         Description     
-----                           --------        -------         -----------     
Presentation Graphics           German          33.843 kbps                     
Presentation Graphics           German          0.605 kbps   

Video
ID : 1
ID in the original source medium : 4113 (0x1011)
Format : HEVC
Format/Info : High Efficiency Video Coding
Format profile : Main [email protected]@High
HDR format : SMPTE ST 2086, HDR10 compatible
Codec ID : V_MPEGH/ISO/HEVC
Duration : 2 h 0 min
Bit rate : 51.9 Mb/s
Width : 3 840 pixels
Height : 2 160 pixels
Display aspect ratio : 16:9
Frame rate mode : Constant
Frame rate : 23.976 (24000/1001) FPS
Standard : Component
Color space : YUV
Chroma subsampling : 4:2:0 (Type 2)
Bit depth : 10 bits
Bits/(Pixel*Frame) : 0.261
Stream size : 43.8 GiB (91%)
Language : English
Default : No
Forced : No
Color range : Limited
Color primaries : BT.2020
Transfer characteristics : PQ
Matrix coefficients : BT.2020 non-constant
Mastering display color primaries : Display P3
Mastering display luminance : min: 0.0000 cd/m2, max: 1000 cd/m2
Maximum Content Light Level : 1000 cd/m2
Maximum Frame-Average Light Level : 400 cd/m2
Original source medium : Blu-ray

Audio #1
ID : 2
ID in the original source medium : 4353 (0x1101)
Format : DTS XLL
Format/Info : Digital Theater Systems
Commercial name : DTS-HD Master Audio
Codec ID : A_DTS
Duration : 2 h 0 min
Bit rate mode : Variable
Bit rate : 2 208 kb/s
Channel(s) : 6 channels
Channel layout : C L R Ls Rs LFE
Sampling rate : 48.0 kHz
Frame rate : 93.750 FPS (512 SPF)
Bit depth : 16 bits
Compression mode : Lossless
Stream size : 1.86 GiB (4%)
Title : DTS-HD MA 5.1
Language : English
Default : Yes
Forced : No
Original source medium : Blu-ray

Audio #2
ID : 3
Format : AC-3
Format/Info : Audio Coding 3
Commercial name : Dolby Digital
Codec ID : A_AC3
Duration : 2 h 0 min
Bit rate mode : Constant
Bit rate : 640 kb/s
Channel(s) : 6 channels
Channel layout : L R C LFE Ls Rs
Sampling rate : 48.0 kHz
Frame rate : 31.250 FPS (1536 SPF)
Compression mode : Lossy
Stream size : 552 MiB (1%)
Title : DD 5.1
Language : English
Service kind : Complete Main
Default : No
Forced : No

Audio #3
ID : 4
ID in the original source medium : 4352 (0x1100)
Format : DTS XLL
Format/Info : Digital Theater Systems
Commercial name : DTS-HD Master Audio
Codec ID : A_DTS
Duration : 2 h 0 min
Bit rate mode : Variable
Bit rate : 2 250 kb/s
Channel(s) : 6 channels
Channel layout : C L R Ls Rs LFE
Sampling rate : 48.0 kHz
Frame rate : 93.750 FPS (512 SPF)
Bit depth : 16 bits
Compression mode : Lossless
Stream size : 1.90 GiB (4%)
Title : DTS-HD MA 5.1
Language : German
Default : No
Forced : No
Original source medium : Blu-ray

Text #1
ID : 5
Format : UTF-8
Codec ID : S_TEXT/UTF8
Codec ID/Info : UTF-8 Plain Text
Duration : 1 h 52 min
Bit rate : 45 b/s
Count of elements : 1255
Stream size : 37.6 KiB (0%)
Title : English-SRT
Language : English
Default : Yes
Forced : No

Text #2
ID : 6
ID in the original source medium : 4768 (0x12A0)
Format : PGS
Muxing mode : zlib
Codec ID : S_HDMV/PGS
Codec ID/Info : Picture based subtitle format used on BDs/HD-DVDs
Duration : 1 h 51 min
Bit rate : 36.6 kb/s
Count of elements : 2338
Stream size : 29.2 MiB (0%)
Title : German-PGS
Language : German
Default : No
Forced : No
Original source medium : Blu-ray

Text #3
ID : 7
ID in the original source medium : 4769 (0x12A1)
Format : PGS
Muxing mode : zlib
Codec ID : S_HDMV/PGS
Codec ID/Info : Picture based subtitle format used on BDs/HD-DVDs
Duration : 1 h 16 min
Bit rate : 954 b/s
Count of elements : 44
Stream size : 535 KiB (0%)
Title : German-FORCED-PGS
Language : German
Default : No
Forced : No
Original source medium : Blu-ray

Menu
00:00:00.000 : Chapter 01
00:11:38.239 : Chapter 02
00:20:58.924 : Chapter 03
00:29:33.521 : Chapter 04
00:39:21.108 : Chapter 05
00:49:42.813 : Chapter 06
01:00:56.444 : Chapter 07
01:09:50.519 : Chapter 08
01:19:31.808 : Chapter 09
01:29:00.168 : Chapter 10
01:40:43.078 : Chapter 11
01:50:20.864 : Chapter 12

本帖子中包含更多资源

您需要 登录 才可以下载或查看,没有帐号?立即注册

x
回复

使用道具 举报

0

主题

385

帖子

2143

积分

金牌会员

Rank: 6Rank: 6

积分
2143
发表于 5 天前 | 显示全部楼层
多谢分享,辛苦了!!
回复

使用道具 举报

0

主题

753

帖子

3730

积分

论坛元老

Rank: 8Rank: 8

积分
3730
发表于 4 天前 | 显示全部楼层
分享愉快 谢谢楼主
回复

使用道具 举报

0

主题

71

帖子

369

积分

中级会员

Rank: 3Rank: 3

积分
369
发表于 3 天前 | 显示全部楼层
金酸梅酱
回复

使用道具 举报

0

主题

50

帖子

521

积分

高级会员

Rank: 4

积分
521
发表于 3 天前 | 显示全部楼层
哈哈哈哈
回复

使用道具 举报

您需要登录后才可以回帖 登录 | 立即注册

本版积分规则

QQ|Archiver|手机版|小黑屋|原盘天堂 好多盘 点击这里给我发消息

GMT+8, 2021-6-13 10:42 , Processed in 0.056713 second(s), 24 queries .

Powered by Discuz! X3.4

Copyright © 2001-2020, Tencent Cloud.

快速回复 返回顶部 返回列表