请选择 进入手机版 | 继续访问电脑版
本站Q群713428235【盘盘多】已满,请新会员加原盘天堂新官方QQ群709708625【好多盘】,验证信息填写您在论坛的会员名,不填会员名的无法入群哈,进群后修改您的群名片名字为您在论坛的会员名,请务必修改,否则群成员多了不知道您是哪个会员。

原盘天堂

 找回密码
 立即注册
京东商城当当华为商城名牌时尚折扣网,一个新型的网上购物平台,我们每周为您精选3~4个国际知名品牌,商品折扣低至2折限时限量售卖,商品囊括时装、护肤品、箱包、皮具、配饰、香水等等,琳琅满目。亿格瑞A10硬盘播放器 苏宁易购
查看: 41|回复: 1

4k蓝光原盘bdmv 夺宝奇兵4 中字 indiana.jones.and.the.kingdom.of.the.crystal.skull.2008.2160p.bluray.hevc.truehd.7.1.atmos[60.15 GB]

[复制链接]

6023

主题

6690

帖子

133万

积分

管理员

Rank: 18Rank: 18Rank: 18Rank: 18Rank: 18

积分
1332455
发表于 5 天前 | 显示全部楼层 |阅读模式






◎译  名 夺宝奇兵4/夺宝奇兵4:水晶头骨王国/夺宝奇兵之水晶骷髅国/水晶骷髅王国/印地安纳琼斯和水晶骷髅王国/印地安纳琼斯之水晶骷髅王国/印第安纳琼斯:水晶骷髅王国(台)
◎片  名 Indiana Jones and the Kingdom of the Crystal Skull
◎年  代 2008
◎产  地 美国
◎类  别 动作/惊悚/冒险
◎语  言 英语/德语/俄语
◎上映日期 2008-05-22(美国)
◎IMDb链接  https://www.imdb.com/title/tt0367882/
◎豆瓣评分 7.2/10 from 50142 users
◎豆瓣链接 https://douban.com/subject/1428051/
◎片  长 122分钟
◎导  演 史蒂文·斯皮尔伯格 Steven Spielberg
◎编  剧 大卫·凯普 David Koepp / 乔治·卢卡斯 George Lucas / 杰夫·内桑森 Jeff Nathanson / 菲利普·考夫曼 Philip Kaufman
◎主  演 哈里森·福特 Harrison Ford
       希亚·拉博夫 Shia LaBeouf
       凯特·布兰切特 Cate Blanchett
       凯伦·阿兰 Karen Allen
       雷·温斯顿 Ray Winstone
       约翰·赫特 John Hurt
       吉姆·布劳德本特 Jim Broadbent
       Adam Kirley
       海伦娜·巴雷特 Helena Barrett
       Conor Timmis
       安德鲁·迪沃夫 Andrew Divoff
       V·J·福斯特 V.J. Foster
       厄尼·雷耶斯 Ernie Reyes Jr.
       约翰托宾 John H. Tobin
       阿兰·戴尔 Alan Dale
       尼托·拉里奥萨 Nito Larioza
       Steven A. Miller
       卡洛斯·利纳雷斯 Carlos Linares
       珍妮特·洛佩兹 Janet Lopez
       Andrew Goldfarb
       Dennis Nusbaum
       Brian Knutson
       Sean Marrinan
       Gleb Kaminer
       Ilya Jonathan Zaydenberg
       罗伯特·贝克尔 Robert Baker
       琼·瓦勒拉 Jon Valera
       尼尔·弗林 Neil Flynn
       乔恩·博瑞尔 Jon Braver
       Jonathan Lomma
       帕沙·D.林奇尼科夫 Pasha D. Lychnikoff
       安德雷·阿莱森 Andre Alexsen
       Jerzy Jacyna
       Sam Rocco
       萨沙·斯皮尔伯格 Sasha Spielberg
       Paul Thornton
       切特·汉克斯 Chet Hanks

◎标  签 冒险 | 美国 | 斯皮尔伯格 | 动作 | 奇幻 | 美国电影 | HarrisonFord | 2008

◎简  介

  
  19年后,印第安纳琼斯博士(Harrison Ford饰)再次启程,旨在将埃克托王国遗失的水晶骷髅头骨归还原地——传说中,归还圣物者将被赐予巨大力量。
  
  在琼斯的老友奥克斯发现水晶头骨前,这一切还只是传说。可奥克斯之后却不知何故丧失了心智,并落入苏联特工队的手中。为首的冷酷女间谍艾瑞娜(Cate Blanchett饰)深深着迷于所谓的神秘力量,她胁迫琼斯一行人与其共同前往亚马逊流域,找寻失落的黄金城埃克托王国。
  
  在秘鲁密林,琼斯等人和苏军展开酣畅淋漓的战斗,其间还伴随着沼泽、食人蚁、原始土著攻击等致命威胁,在他们历经千难万险,最终踏入密室的那一刻,世界上最奇异的景象出现了……
  

◎获奖情况

  第29届金酸莓奖  (2009)
  最差前传、重拍、恶搞及续集电影
  
  第17届MTV电影奖  (2008)
  MTV电影奖迄今最佳暑期电影(提名)


DISC INFO:

Disc Title:     Indiana.Jones.and.the.Kingdom.of.the.Crystal.Skull.2008.2160p.BluRay.HEVC.TrueHD.7.1.Atmos-JONES
Disc Size:      64,585,964,563 bytes
Protection:     AACS2
Extras:         Ultra HD, BD-Java
BDInfo:         0.7.5.9 (compatible layout created by DVDFab 12.0.3.2)

PLAYLIST REPORT:

Name:                   00040.MPLS  
Length:                 2:02:29.759 (h:m:s.ms)
Size:                   61,861,263,360 bytes
Total Bitrate:          67.33 Mbps

(*) Indicates included stream hidden by this playlist.

VIDEO:

Codec                   Bitrate             Description     
-----                   -------             -----------     
MPEG-H HEVC Video       50347 kbps          2160p / 23.976 fps / 16:9 / Main 10 @ Level 5.1 @ High / 4:2:0 / 10 bits / 4000nits / HDR10 / BT.2020
* MPEG-H HEVC Video     3720 kbps (6.88%)   1080p / 23.976 fps / 16:9 / Main 10 @ Level 5.1 @ High / 4:2:0 / 10 bits / 4000nits / Dolby Vision FEL / BT.2020

AUDIO:

Codec                           Language        Bitrate         Description     
-----                           --------        -------         -----------     
Dolby TrueHD/Atmos Audio        English         4723 kbps       7.1+11 objects / 48 kHz / 4083 kbps / 24-bit (AC3 Core: 5.1-EX / 48 kHz / 640 kbps)
Dolby Digital Audio             English         640 kbps        5.1 / 48 kHz / 640 kbps
Dolby Digital Audio             Spanish         640 kbps        5.1 / 48 kHz / 640 kbps
Dolby Digital Audio             French          640 kbps        5.1 / 48 kHz / 640 kbps
Dolby Digital Audio             Italian         640 kbps        5.1 / 48 kHz / 640 kbps
Dolby Digital Audio             Japanese        640 kbps        5.1 / 48 kHz / 640 kbps
Dolby Digital Audio             Russian         640 kbps        5.1 / 48 kHz / 640 kbps

SUBTITLES:

Codec                           Language        Bitrate         Description     
-----                           --------        -------         -----------     
Presentation Graphics           English         25.306 kbps                     
Presentation Graphics           English         27.864 kbps                     
Presentation Graphics           Chinese         17.777 kbps                     
Presentation Graphics           Danish          21.859 kbps                     
Presentation Graphics           Spanish         22.971 kbps                     
Presentation Graphics           French          21.206 kbps                     
Presentation Graphics           Italian         23.206 kbps                     
Presentation Graphics           Japanese        17.912 kbps                     
Presentation Graphics           Korean          16.307 kbps                     
Presentation Graphics           Chinese         17.778 kbps                     
Presentation Graphics           Dutch           18.337 kbps                     
Presentation Graphics           Norwegian       19.169 kbps                     
Presentation Graphics           Russian         25.365 kbps                     
Presentation Graphics           Chinese         19.175 kbps                     
Presentation Graphics           Finnish         20.509 kbps                     
Presentation Graphics           Swedish         22.17 kbps                     
Presentation Graphics           Thai            21.214 kbps                     
Presentation Graphics           Japanese        0.179 kbps  

Video
ID : 1
ID in the original source medium : 4113 (0x1011)
Format : HEVC
Format/Info : High Efficiency Video Coding
Format profile : Main [email protected]@High
HDR format : SMPTE ST 2086, HDR10 compatible
Codec ID : V_MPEGH/ISO/HEVC
Duration : 2 h 2 min
Bit rate : 50.3 Mb/s
Width : 3 840 pixels
Height : 2 160 pixels
Display aspect ratio : 16:9
Frame rate mode : Constant
Frame rate : 23.976 (24000/1001) FPS
Color space : YUV
Chroma subsampling : 4:2:0 (Type 2)
Bit depth : 10 bits
Bits/(Pixel*Frame) : 0.253
Stream size : 43.1 GiB (79%)
Language : English
Default : No
Forced : No
Color range : Limited
Color primaries : BT.2020
Transfer characteristics : PQ
Matrix coefficients : BT.2020 non-constant
Mastering display color primaries : Display P3
Mastering display luminance : min: 0.0050 cd/m2, max: 4000 cd/m2
Maximum Content Light Level : 1000 cd/m2
Maximum Frame-Average Light Level : 265 cd/m2
Original source medium : Blu-ray

Audio #1
ID : 2
ID in the original source medium : 4352 (0x1100)
Format : MLP FBA 16-ch
Format/Info : Meridian Lossless Packing FBA with 16-channel presentation
Commercial name : Dolby TrueHD with Dolby Atmos
Codec ID : A_TRUEHD
Duration : 2 h 2 min
Bit rate mode : Variable
Bit rate : 4 083 kb/s
Maximum bit rate : 6 465 kb/s
Channel(s) : 8 channels
Channel layout : L R C LFE Ls Rs Lb Rb
Sampling rate : 48.0 kHz
Frame rate : 1 200.000 FPS (40 SPF)
Bit depth : 24 bits
Compression mode : Lossless
Stream size : 3.49 GiB (6%)
Title : TrueHD 7.1 Atmos
Language : English
Default : Yes
Forced : No
Original source medium : Blu-ray
Number of dynamic objects : 11
Bed channel count : 1 channel
Bed channel configuration : LFE

Audio #2
ID : 3
Format : DTS XLL
Format/Info : Digital Theater Systems
Commercial name : DTS-HD Master Audio
Codec ID : A_DTS
Duration : 2 h 2 min
Bit rate mode : Variable
Bit rate : 4 271 kb/s
Channel(s) : 8 channels
Channel layout : C L R LFE Lb Rb Lss Rss
Sampling rate : 48.0 kHz
Frame rate : 93.750 FPS (512 SPF)
Bit depth : 24 bits
Compression mode : Lossless
Stream size : 3.65 GiB (7%)
Title : DTS-HD MA 7.1
Language : English
Default : No
Forced : No

Audio #3
ID : 4
ID in the original source medium : 4352 (0x1100)
Format : AC-3
Format/Info : Audio Coding 3
Commercial name : Dolby Digital
Format settings : Dolby Surround EX
Codec ID : A_AC3
Duration : 2 h 2 min
Bit rate mode : Constant
Bit rate : 640 kb/s
Channel(s) : 6 channels
Channel layout : L R C LFE Ls Rs
Sampling rate : 48.0 kHz
Frame rate : 31.250 FPS (1536 SPF)
Compression mode : Lossy
Stream size : 561 MiB (1%)
Title : DD 5.1
Language : English
Service kind : Complete Main
Default : No
Forced : No
Original source medium : Blu-ray

Audio #4
ID : 5
ID in the original source medium : 4353 (0x1101)
Format : AC-3
Format/Info : Audio Coding 3
Commercial name : Dolby Digital
Codec ID : A_AC3
Duration : 2 h 2 min
Bit rate mode : Constant
Bit rate : 640 kb/s
Channel(s) : 6 channels
Channel layout : L R C LFE Ls Rs
Sampling rate : 48.0 kHz
Frame rate : 31.250 FPS (1536 SPF)
Compression mode : Lossy
Stream size : 561 MiB (1%)
Title : DD 5.1
Language : English
Service kind : Complete Main
Default : No
Forced : No
Original source medium : Blu-ray

Audio #5
ID : 6
ID in the original source medium : 4354 (0x1102)
Format : AC-3
Format/Info : Audio Coding 3
Commercial name : Dolby Digital
Codec ID : A_AC3
Duration : 2 h 2 min
Bit rate mode : Constant
Bit rate : 640 kb/s
Channel(s) : 6 channels
Channel layout : L R C LFE Ls Rs
Sampling rate : 48.0 kHz
Frame rate : 31.250 FPS (1536 SPF)
Compression mode : Lossy
Stream size : 561 MiB (1%)
Title : DD 5.1
Language : Spanish
Service kind : Complete Main
Default : No
Forced : No
Original source medium : Blu-ray

Audio #6
ID : 7
ID in the original source medium : 4355 (0x1103)
Format : AC-3
Format/Info : Audio Coding 3
Commercial name : Dolby Digital
Codec ID : A_AC3
Duration : 2 h 2 min
Bit rate mode : Constant
Bit rate : 640 kb/s
Channel(s) : 6 channels
Channel layout : L R C LFE Ls Rs
Sampling rate : 48.0 kHz
Frame rate : 31.250 FPS (1536 SPF)
Compression mode : Lossy
Stream size : 561 MiB (1%)
Title : DD 5.1
Language : French
Service kind : Complete Main
Default : No
Forced : No
Original source medium : Blu-ray

Audio #7
ID : 8
ID in the original source medium : 4356 (0x1104)
Format : AC-3
Format/Info : Audio Coding 3
Commercial name : Dolby Digital
Codec ID : A_AC3
Duration : 2 h 2 min
Bit rate mode : Constant
Bit rate : 640 kb/s
Channel(s) : 6 channels
Channel layout : L R C LFE Ls Rs
Sampling rate : 48.0 kHz
Frame rate : 31.250 FPS (1536 SPF)
Compression mode : Lossy
Stream size : 561 MiB (1%)
Title : DD 5.1
Language : Italian
Service kind : Complete Main
Default : No
Forced : No
Original source medium : Blu-ray

Audio #8
ID : 9
ID in the original source medium : 4357 (0x1105)
Format : AC-3
Format/Info : Audio Coding 3
Commercial name : Dolby Digital
Codec ID : A_AC3
Duration : 2 h 2 min
Bit rate mode : Constant
Bit rate : 640 kb/s
Channel(s) : 6 channels
Channel layout : L R C LFE Ls Rs
Sampling rate : 48.0 kHz
Frame rate : 31.250 FPS (1536 SPF)
Compression mode : Lossy
Stream size : 561 MiB (1%)
Title : DD 5.1
Language : Japanese
Service kind : Complete Main
Default : No
Forced : No
Original source medium : Blu-ray

Audio #9
ID : 10
ID in the original source medium : 4358 (0x1106)
Format : AC-3
Format/Info : Audio Coding 3
Commercial name : Dolby Digital
Codec ID : A_AC3
Duration : 2 h 2 min
Bit rate mode : Constant
Bit rate : 640 kb/s
Channel(s) : 6 channels
Channel layout : L R C LFE Ls Rs
Sampling rate : 48.0 kHz
Frame rate : 31.250 FPS (1536 SPF)
Compression mode : Lossy
Stream size : 561 MiB (1%)
Title : DD 5.1
Language : Russian
Service kind : Complete Main
Default : No
Forced : No
Original source medium : Blu-ray

Text #1
ID : 11
Format : UTF-8
Codec ID : S_TEXT/UTF8
Codec ID/Info : UTF-8 Plain Text
Duration : 1 h 54 min
Bit rate : 42 b/s
Count of elements : 1038
Stream size : 35.7 KiB (0%)
Title : SRT
Language : English
Default : Yes
Forced : No

Text #2
ID : 12
ID in the original source medium : 4768 (0x12A0)
Format : PGS
Muxing mode : zlib
Codec ID : S_HDMV/PGS
Codec ID/Info : Picture based subtitle format used on BDs/HD-DVDs
Duration : 1 h 54 min
Bit rate : 27.0 kb/s
Count of elements : 2084
Stream size : 22.2 MiB (0%)
Language : English
Default : No
Forced : No
Original source medium : Blu-ray

Text #3
ID : 13
ID in the original source medium : 4769 (0x12A1)
Format : PGS
Muxing mode : zlib
Codec ID : S_HDMV/PGS
Codec ID/Info : Picture based subtitle format used on BDs/HD-DVDs
Duration : 1 h 55 min
Bit rate : 29.5 kb/s
Count of elements : 2396
Stream size : 24.4 MiB (0%)
Language : English
Default : No
Forced : No
Original source medium : Blu-ray

Text #4
ID : 14
ID in the original source medium : 4770 (0x12A2)
Format : PGS
Muxing mode : zlib
Codec ID : S_HDMV/PGS
Codec ID/Info : Picture based subtitle format used on BDs/HD-DVDs
Duration : 2 h 1 min
Bit rate : 17.9 kb/s
Count of elements : 2052
Stream size : 15.6 MiB (0%)
Language : Chinese
Default : No
Forced : No
Original source medium : Blu-ray

Text #5
ID : 15
ID in the original source medium : 4771 (0x12A3)
Format : PGS
Muxing mode : zlib
Codec ID : S_HDMV/PGS
Codec ID/Info : Picture based subtitle format used on BDs/HD-DVDs
Duration : 2 h 1 min
Bit rate : 22.0 kb/s
Count of elements : 2022
Stream size : 19.2 MiB (0%)
Language : Danish
Default : No
Forced : No
Original source medium : Blu-ray

Text #6
ID : 16
ID in the original source medium : 4772 (0x12A4)
Format : PGS
Muxing mode : zlib
Codec ID : S_HDMV/PGS
Codec ID/Info : Picture based subtitle format used on BDs/HD-DVDs
Duration : 2 h 1 min
Bit rate : 23.1 kb/s
Count of elements : 2042
Stream size : 20.1 MiB (0%)
Language : Spanish
Default : No
Forced : No
Original source medium : Blu-ray

Text #7
ID : 17
ID in the original source medium : 4772 (0x12A4)
Format : PGS
Muxing mode : zlib
Codec ID : S_HDMV/PGS
Codec ID/Info : Picture based subtitle format used on BDs/HD-DVDs
Duration : 19 min 44 s
Bit rate : 757 b/s
Count of elements : 10
Stream size : 110 KiB (0%)
Language : Spanish
Default : No
Forced : No
Original source medium : Blu-ray

Text #8
ID : 18
ID in the original source medium : 4773 (0x12A5)
Format : PGS
Muxing mode : zlib
Codec ID : S_HDMV/PGS
Codec ID/Info : Picture based subtitle format used on BDs/HD-DVDs
Duration : 2 h 1 min
Bit rate : 21.3 kb/s
Count of elements : 2006
Stream size : 18.6 MiB (0%)
Language : French
Default : No
Forced : No
Original source medium : Blu-ray

Text #9
ID : 19
ID in the original source medium : 4773 (0x12A5)
Format : PGS
Muxing mode : zlib
Codec ID : S_HDMV/PGS
Codec ID/Info : Picture based subtitle format used on BDs/HD-DVDs
Duration : 19 min 44 s
Bit rate : 714 b/s
Count of elements : 10
Stream size : 103 KiB (0%)
Language : French
Default : No
Forced : No
Original source medium : Blu-ray

Text #10
ID : 20
ID in the original source medium : 4774 (0x12A6)
Format : PGS
Muxing mode : zlib
Codec ID : S_HDMV/PGS
Codec ID/Info : Picture based subtitle format used on BDs/HD-DVDs
Duration : 2 h 1 min
Bit rate : 23.4 kb/s
Count of elements : 2094
Stream size : 20.3 MiB (0%)
Language : Italian
Default : No
Forced : No
Original source medium : Blu-ray

Text #11
ID : 21
ID in the original source medium : 4774 (0x12A6)
Format : PGS
Muxing mode : zlib
Codec ID : S_HDMV/PGS
Codec ID/Info : Picture based subtitle format used on BDs/HD-DVDs
Duration : 19 min 44 s
Bit rate : 599 b/s
Count of elements : 8
Stream size : 86.8 KiB (0%)
Language : Italian
Default : No
Forced : No
Original source medium : Blu-ray

Text #12
ID : 22
ID in the original source medium : 4775 (0x12A7)
Format : PGS
Muxing mode : zlib
Codec ID : S_HDMV/PGS
Codec ID/Info : Picture based subtitle format used on BDs/HD-DVDs
Duration : 1 h 54 min
Bit rate : 19.1 kb/s
Count of elements : 2066
Stream size : 15.7 MiB (0%)
Language : Japanese
Default : No
Forced : No
Original source medium : Blu-ray

Text #13
ID : 23
ID in the original source medium : 4776 (0x12A8)
Format : PGS
Muxing mode : zlib
Codec ID : S_HDMV/PGS
Codec ID/Info : Picture based subtitle format used on BDs/HD-DVDs
Duration : 2 h 1 min
Bit rate : 16.4 kb/s
Count of elements : 1988
Stream size : 14.3 MiB (0%)
Language : Korean
Default : No
Forced : No
Original source medium : Blu-ray

Text #14
ID : 24
ID in the original source medium : 4777 (0x12A9)
Format : PGS
Muxing mode : zlib
Codec ID : S_HDMV/PGS
Codec ID/Info : Picture based subtitle format used on BDs/HD-DVDs
Duration : 2 h 1 min
Bit rate : 17.9 kb/s
Count of elements : 2044
Stream size : 15.6 MiB (0%)
Language : Chinese
Default : No
Forced : No
Original source medium : Blu-ray

Text #15
ID : 25
ID in the original source medium : 4778 (0x12AA)
Format : PGS
Muxing mode : zlib
Codec ID : S_HDMV/PGS
Codec ID/Info : Picture based subtitle format used on BDs/HD-DVDs
Duration : 2 h 1 min
Bit rate : 18.5 kb/s
Count of elements : 1908
Stream size : 16.1 MiB (0%)
Language : Dutch
Default : No
Forced : No
Original source medium : Blu-ray

Text #16
ID : 26
ID in the original source medium : 4779 (0x12AB)
Format : PGS
Muxing mode : zlib
Codec ID : S_HDMV/PGS
Codec ID/Info : Picture based subtitle format used on BDs/HD-DVDs
Duration : 2 h 1 min
Bit rate : 19.3 kb/s
Count of elements : 2010
Stream size : 16.8 MiB (0%)
Language : Norwegian
Default : No
Forced : No
Original source medium : Blu-ray

Text #17
ID : 27
ID in the original source medium : 4780 (0x12AC)
Format : PGS
Muxing mode : zlib
Codec ID : S_HDMV/PGS
Codec ID/Info : Picture based subtitle format used on BDs/HD-DVDs
Duration : 2 h 1 min
Bit rate : 25.5 kb/s
Count of elements : 2102
Stream size : 22.2 MiB (0%)
Language : Russian
Default : No
Forced : No
Original source medium : Blu-ray

Text #18
ID : 28
ID in the original source medium : 4780 (0x12AC)
Format : PGS
Muxing mode : zlib
Codec ID : S_HDMV/PGS
Codec ID/Info : Picture based subtitle format used on BDs/HD-DVDs
Duration : 19 min 44 s
Bit rate : 947 b/s
Count of elements : 12
Stream size : 137 KiB (0%)
Language : Russian
Default : No
Forced : No
Original source medium : Blu-ray

Text #19
ID : 29
ID in the original source medium : 4781 (0x12AD)
Format : PGS
Muxing mode : zlib
Codec ID : S_HDMV/PGS
Codec ID/Info : Picture based subtitle format used on BDs/HD-DVDs
Duration : 2 h 1 min
Bit rate : 19.3 kb/s
Count of elements : 2034
Stream size : 16.8 MiB (0%)
Language : Chinese
Default : No
Forced : No
Original source medium : Blu-ray

Text #20
ID : 30
ID in the original source medium : 4782 (0x12AE)
Format : PGS
Muxing mode : zlib
Codec ID : S_HDMV/PGS
Codec ID/Info : Picture based subtitle format used on BDs/HD-DVDs
Duration : 2 h 1 min
Bit rate : 20.6 kb/s
Count of elements : 1994
Stream size : 18.0 MiB (0%)
Language : Finnish
Default : No
Forced : No
Original source medium : Blu-ray

Text #21
ID : 31
ID in the original source medium : 4783 (0x12AF)
Format : PGS
Muxing mode : zlib
Codec ID : S_HDMV/PGS
Codec ID/Info : Picture based subtitle format used on BDs/HD-DVDs
Duration : 2 h 1 min
Bit rate : 22.3 kb/s
Count of elements : 2024
Stream size : 19.4 MiB (0%)
Language : Swedish
Default : No
Forced : No
Original source medium : Blu-ray

Text #22
ID : 32
ID in the original source medium : 4784 (0x12B0)
Format : PGS
Muxing mode : zlib
Codec ID : S_HDMV/PGS
Codec ID/Info : Picture based subtitle format used on BDs/HD-DVDs
Duration : 2 h 1 min
Bit rate : 21.4 kb/s
Count of elements : 2000
Stream size : 18.6 MiB (0%)
Language : Thai
Default : No
Forced : No
Original source medium : Blu-ray

Text #23
ID : 33
ID in the original source medium : 4785 (0x12B1)
Format : PGS
Muxing mode : zlib
Codec ID : S_HDMV/PGS
Codec ID/Info : Picture based subtitle format used on BDs/HD-DVDs
Duration : 1 h 53 min
Bit rate : 192 b/s
Count of elements : 28
Stream size : 161 KiB (0%)
Language : Japanese
Default : No
Forced : No
Original source medium : Blu-ray

Menu
00:00:00.000 : Chapter 01
00:07:20.148 : Chapter 02
00:13:10.206 : Chapter 03
00:21:42.634 : Chapter 04
00:27:37.656 : Chapter 05
00:36:57.215 : Chapter 06
00:46:33.290 : Chapter 07
00:55:36.041 : Chapter 08
01:05:45.232 : Chapter 09
01:12:06.739 : Chapter 10
01:21:51.281 : Chapter 11
01:29:11.596 : Chapter 12
01:36:02.798 : Chapter 13
01:44:21.755 : Chapter 14
01:51:07.952 : Chapter 15
01:55:53.363 : Chapter 16

本帖子中包含更多资源

您需要 登录 才可以下载或查看,没有帐号?立即注册

x
回复

使用道具 举报

0

主题

385

帖子

2143

积分

金牌会员

Rank: 6Rank: 6

积分
2143
发表于 5 天前 | 显示全部楼层
多谢分享,辛苦了!!
回复

使用道具 举报

您需要登录后才可以回帖 登录 | 立即注册

本版积分规则

QQ|Archiver|手机版|小黑屋|原盘天堂 好多盘 点击这里给我发消息

GMT+8, 2021-6-13 09:23 , Processed in 0.057963 second(s), 24 queries .

Powered by Discuz! X3.4

Copyright © 2001-2020, Tencent Cloud.

快速回复 返回顶部 返回列表