请选择 进入手机版 | 继续访问电脑版
本站Q群713428235【盘盘多】已满,请新会员加原盘天堂新官方QQ群709708625【好多盘】,验证信息填写您在论坛的会员名,不填会员名的无法入群哈,进群后修改您的群名片名字为您在论坛的会员名,请务必修改,否则群成员多了不知道您是哪个会员。

原盘天堂

 找回密码
 立即注册
京东商城当当华为商城名牌时尚折扣网,一个新型的网上购物平台,我们每周为您精选3~4个国际知名品牌,商品折扣低至2折限时限量售卖,商品囊括时装、护肤品、箱包、皮具、配饰、香水等等,琳琅满目。亿格瑞A10硬盘播放器 苏宁易购
查看: 62|回复: 1

2d蓝光原盘bdmv 最后的城堡 英语原版 the.last.castle.2001.1080p.bluray.avc.dts-hd.ma.5.1[39.41 GB]

[复制链接]

6023

主题

6690

帖子

133万

积分

管理员

Rank: 18Rank: 18Rank: 18Rank: 18Rank: 18

积分
1332455
发表于 2021-6-3 12:17:01 | 显示全部楼层 |阅读模式








◎译  名 最后的城堡/对垒风暴/叛将风云/铁狱暗战
◎片  名 The Last Castle
◎年  代 2001
◎产  地 美国
◎类  别 剧情/动作
◎语  言 英语
◎上映日期 2001-10-19
◎IMDb链接  https://www.imdb.com/title/tt0272020/
◎豆瓣评分 7.8/10 from 6205 users
◎豆瓣链接 https://douban.com/subject/1306254/
◎片  长 131分钟
◎导  演 罗德·拉里 Rod Lurie
◎编  剧 大卫·斯卡尔帕 David Scarpa / 格雷厄姆·约斯特 Graham Yost
◎主  演 罗伯特·雷德福 Robert Redford
       詹姆斯·甘多菲尼 James Gandolfini
       马克·鲁弗洛 Mark Ruffalo
       史蒂夫·伯顿 Steve Burton
       德尔罗伊·林多 Delroy Lindo
       保罗·考尔德伦 Paul Calderon
       山姆·鲍尔 Sam Ball
       小克利夫顿·克林斯 Clifton Collins Jr.
       布莱恩·古德曼 Brian Goodman
       迈克尔·厄尔比 Michael Irby
       弗兰克·米利塔里 Frank Military
       Mary Jean McAdams
       Jason Drago
       凯瑟琳·莫里斯 Kathryn Morris
       大卫·阿尔福德 David Alford
       Frank Fox
       David Chattam
       Steve Sandfort
       马特·曼格姆 Matt Mangum
       Dusty Shaffer
       Sean Cameron
       Austin Sanders
       Johnny Dowers
       罗宾·怀特 Robin Wright

◎标  签 监狱 | 美国 | 军事 | 美国电影 | 人性 | 犯罪 | 剧情 | 动作

◎简  介

  
  一座由城堡改建而来的军事监狱中迎来了一位重量级犯人——陆军将军埃尔文(罗伯特·雷德福 Robert Redford 饰),监狱长温特(James Gandolfini 饰)笑脸迎接,但很快开始厌恶对方身上的军人傲骨。埃尔文在监狱中听闻诸多温特的劣迹,但抱着安心服刑的心态让他并未多事,很快,温特剥夺军人尊严的惩罚激怒了埃尔文,埃尔文开始用自己的方式令众犯人找回尊严,并顺理成章成为犯人的领袖,感到自己受到威胁的温特愈发不可理喻,下令射杀一名犯人导致双方矛盾升级。
  
  埃尔文决定组织实施监狱暴动,以使上级部门介入对温特的调查。这些昔日的军人、如今的犯人们抱着重新回到战场的觉悟,在高度组织和秘密的情况下完成了作战的准备,一次双重间谍的任务成功之后,犯人军团吹响了夺取监狱的号角!
  
DISC INFO:

Disc Title:     The.Last.Castle.2001.MULTi.COMPLETE.BLURAY-NEWHAM
Disc Size:      42,317,199,322 bytes
Protection:     AACS
Extras:         BD-Java
BDInfo:         0.7.5.9 (compatible layout created by DVDFab 12.0.2.9)

PLAYLIST REPORT:

Name:                   00001.MPLS  
Length:                 2:11:11.280 (h:m:s.ms)
Size:                   38,904,385,536 bytes
Total Bitrate:          39.54 Mbps

VIDEO:

Codec                   Bitrate             Description     
-----                   -------             -----------     
MPEG-4 AVC Video        29906 kbps          1080p / 23.976 fps / 16:9 / High Profile 4.1

AUDIO:

Codec                           Language        Bitrate         Description     
-----                           --------        -------         -----------     
DTS-HD Master Audio             English         4255 kbps       5.1 / 48 kHz / 4255 kbps / 24-bit (DTS Core: 5.1 / 48 kHz / 1509 kbps / 24-bit)
Dolby Digital Audio             English         640 kbps        5.1 / 48 kHz / 640 kbps
Dolby Digital Audio             German          640 kbps        5.1 / 48 kHz / 640 kbps
Dolby Digital Audio             French          640 kbps        5.1 / 48 kHz / 640 kbps
Dolby Digital Audio             Japanese        640 kbps        5.1 / 48 kHz / 640 kbps
Dolby Digital Audio             English         224 kbps        2.0 / 48 kHz / 224 kbps

SUBTITLES:

Codec                           Language        Bitrate         Description     
-----                           --------        -------         -----------     
Presentation Graphics           English         36.321 kbps                     
Presentation Graphics           English         42.736 kbps                     
Presentation Graphics           German          36.646 kbps                     
Presentation Graphics           French          32.847 kbps                     
Presentation Graphics           Japanese        19.107 kbps                     
Presentation Graphics           English         70.235 kbps                     
Presentation Graphics           German          61.865 kbps                     
Presentation Graphics           French          62.65 kbps                     
Presentation Graphics           Japanese        44.86 kbps                     
Presentation Graphics           German          0.323 kbps                     
Presentation Graphics           French          0.223 kbps                     
Presentation Graphics           Japanese        0.206 kbps  


Video
ID : 1
ID in the original source medium : 4113 (0x1011)
Format : AVC
Format/Info : Advanced Video Codec
Format profile : [email protected]
Format settings : CABAC / 2 Ref Frames
Format settings, CABAC : Yes
Format settings, Reference frames : 2 frames
Codec ID : V_MPEG4/ISO/AVC
Duration : 2 h 11 min
Bit rate mode : Variable
Bit rate : 29.9 Mb/s
Width : 1 920 pixels
Height : 1 080 pixels
Display aspect ratio : 16:9
Frame rate mode : Constant
Frame rate : 23.976 (24000/1001) FPS
Color space : YUV
Chroma subsampling : 4:2:0
Bit depth : 8 bits
Scan type : Progressive
Bits/(Pixel*Frame) : 0.602
Stream size : 27.4 GiB (77%)
Language : English
Default : No
Forced : No
Original source medium : Blu-ray

Audio #1
ID : 2
ID in the original source medium : 4352 (0x1100)
Format : DTS XLL
Format/Info : Digital Theater Systems
Commercial name : DTS-HD Master Audio
Codec ID : A_DTS
Duration : 2 h 11 min
Bit rate mode : Variable
Bit rate : 4 255 kb/s
Channel(s) : 6 channels
Channel layout : C L R Ls Rs LFE
Sampling rate : 48.0 kHz
Frame rate : 93.750 FPS (512 SPF)
Bit depth : 24 bits
Compression mode : Lossless
Stream size : 3.90 GiB (11%)
Title : DTS-HD MA 5.1
Language : English
Default : Yes
Forced : No
Original source medium : Blu-ray

Audio #2
ID : 3
ID in the original source medium : 4352 (0x1100)
Format : DTS
Format/Info : Digital Theater Systems
Codec ID : A_DTS
Duration : 2 h 11 min
Bit rate mode : Constant
Bit rate : 1 509 kb/s
Channel(s) : 6 channels
Channel layout : C L R Ls Rs LFE
Sampling rate : 48.0 kHz
Frame rate : 93.750 FPS (512 SPF)
Bit depth : 24 bits
Compression mode : Lossy
Stream size : 1.38 GiB (4%)
Title : DTS 5.1
Language : English
Default : No
Forced : No
Original source medium : Blu-ray

Audio #3
ID : 4
ID in the original source medium : 4353 (0x1101)
Format : AC-3
Format/Info : Audio Coding 3
Commercial name : Dolby Digital
Codec ID : A_AC3
Duration : 2 h 11 min
Bit rate mode : Constant
Bit rate : 640 kb/s
Channel(s) : 6 channels
Channel layout : L R C LFE Ls Rs
Sampling rate : 48.0 kHz
Frame rate : 31.250 FPS (1536 SPF)
Compression mode : Lossy
Stream size : 601 MiB (2%)
Title : DD 5.1
Language : English
Service kind : Complete Main
Default : No
Forced : No
Original source medium : Blu-ray

Audio #4
ID : 5
ID in the original source medium : 4354 (0x1102)
Format : AC-3
Format/Info : Audio Coding 3
Commercial name : Dolby Digital
Codec ID : A_AC3
Duration : 2 h 11 min
Bit rate mode : Constant
Bit rate : 640 kb/s
Channel(s) : 6 channels
Channel layout : L R C LFE Ls Rs
Sampling rate : 48.0 kHz
Frame rate : 31.250 FPS (1536 SPF)
Compression mode : Lossy
Stream size : 600 MiB (2%)
Title : DD 5.1
Language : German
Service kind : Complete Main
Default : No
Forced : No
Original source medium : Blu-ray

Audio #5
ID : 6
ID in the original source medium : 4355 (0x1103)
Format : AC-3
Format/Info : Audio Coding 3
Commercial name : Dolby Digital
Codec ID : A_AC3
Duration : 2 h 11 min
Bit rate mode : Constant
Bit rate : 640 kb/s
Channel(s) : 6 channels
Channel layout : L R C LFE Ls Rs
Sampling rate : 48.0 kHz
Frame rate : 31.250 FPS (1536 SPF)
Compression mode : Lossy
Stream size : 600 MiB (2%)
Title : DD 5.1
Language : French
Service kind : Complete Main
Default : No
Forced : No
Original source medium : Blu-ray

Audio #6
ID : 7
ID in the original source medium : 4356 (0x1104)
Format : AC-3
Format/Info : Audio Coding 3
Commercial name : Dolby Digital
Codec ID : A_AC3
Duration : 2 h 11 min
Bit rate mode : Constant
Bit rate : 640 kb/s
Channel(s) : 6 channels
Channel layout : L R C LFE Ls Rs
Sampling rate : 48.0 kHz
Frame rate : 31.250 FPS (1536 SPF)
Compression mode : Lossy
Stream size : 601 MiB (2%)
Title : DD 5.1
Language : Japanese
Service kind : Complete Main
Default : No
Forced : No
Original source medium : Blu-ray

Audio #7
ID : 8
ID in the original source medium : 4357 (0x1105)
Format : AC-3
Format/Info : Audio Coding 3
Commercial name : Dolby Digital
Codec ID : A_AC3
Duration : 2 h 11 min
Bit rate mode : Constant
Bit rate : 224 kb/s
Channel(s) : 2 channels
Channel layout : L R
Sampling rate : 48.0 kHz
Frame rate : 31.250 FPS (1536 SPF)
Compression mode : Lossy
Stream size : 210 MiB (1%)
Title : DD 2.0
Language : English
Service kind : Complete Main
Default : No
Forced : No
Original source medium : Blu-ray

Text #1
ID : 9
Format : UTF-8
Codec ID : S_TEXT/UTF8
Codec ID/Info : UTF-8 Plain Text
Duration : 2 h 4 min
Bit rate : 55 b/s
Count of elements : 1527
Stream size : 50.9 KiB (0%)
Title : SRT
Language : English
Default : Yes
Forced : No

Text #2
ID : 10
ID in the original source medium : 4608 (0x1200)
Format : PGS
Muxing mode : zlib
Codec ID : S_HDMV/PGS
Codec ID/Info : Picture based subtitle format used on BDs/HD-DVDs
Duration : 2 h 4 min
Bit rate : 38.2 kb/s
Count of elements : 3067
Stream size : 34.1 MiB (0%)
Language : English
Default : No
Forced : No
Original source medium : Blu-ray

Text #3
ID : 11
ID in the original source medium : 4609 (0x1201)
Format : PGS
Muxing mode : zlib
Codec ID : S_HDMV/PGS
Codec ID/Info : Picture based subtitle format used on BDs/HD-DVDs
Duration : 2 h 10 min
Bit rate : 43.0 kb/s
Count of elements : 3468
Stream size : 40.1 MiB (0%)
Language : English
Default : No
Forced : No
Original source medium : Blu-ray

Text #4
ID : 12
ID in the original source medium : 4610 (0x1202)
Format : PGS
Muxing mode : zlib
Codec ID : S_HDMV/PGS
Codec ID/Info : Picture based subtitle format used on BDs/HD-DVDs
Duration : 2 h 5 min
Bit rate : 38.4 kb/s
Count of elements : 2988
Stream size : 34.4 MiB (0%)
Language : German
Default : No
Forced : No
Original source medium : Blu-ray

Text #5
ID : 13
ID in the original source medium : 4611 (0x1203)
Format : PGS
Muxing mode : zlib
Codec ID : S_HDMV/PGS
Codec ID/Info : Picture based subtitle format used on BDs/HD-DVDs
Duration : 2 h 4 min
Bit rate : 34.5 kb/s
Count of elements : 2812
Stream size : 30.8 MiB (0%)
Language : French
Default : No
Forced : No
Original source medium : Blu-ray

Text #6
ID : 14
ID in the original source medium : 4612 (0x1204)
Format : PGS
Muxing mode : zlib
Codec ID : S_HDMV/PGS
Codec ID/Info : Picture based subtitle format used on BDs/HD-DVDs
Duration : 2 h 5 min
Bit rate : 20.0 kb/s
Count of elements : 2632
Stream size : 17.9 MiB (0%)
Language : Japanese
Default : No
Forced : No
Original source medium : Blu-ray

Text #7
ID : 15
ID in the original source medium : 4613 (0x1205)
Format : PGS
Muxing mode : zlib
Codec ID : S_HDMV/PGS
Codec ID/Info : Picture based subtitle format used on BDs/HD-DVDs
Duration : 2 h 8 min
Bit rate : 71.6 kb/s
Count of elements : 4282
Stream size : 65.9 MiB (0%)
Language : English
Default : No
Forced : No
Original source medium : Blu-ray

Text #8
ID : 16
ID in the original source medium : 4614 (0x1206)
Format : PGS
Muxing mode : zlib
Codec ID : S_HDMV/PGS
Codec ID/Info : Picture based subtitle format used on BDs/HD-DVDs
Duration : 2 h 11 min
Bit rate : 61.9 kb/s
Count of elements : 4205
Stream size : 58.0 MiB (0%)
Language : German
Default : No
Forced : No
Original source medium : Blu-ray

Text #9
ID : 17
ID in the original source medium : 4615 (0x1207)
Format : PGS
Muxing mode : zlib
Codec ID : S_HDMV/PGS
Codec ID/Info : Picture based subtitle format used on BDs/HD-DVDs
Duration : 2 h 11 min
Bit rate : 62.7 kb/s
Count of elements : 4280
Stream size : 58.8 MiB (0%)
Language : French
Default : No
Forced : No
Original source medium : Blu-ray

Text #10
ID : 18
ID in the original source medium : 4616 (0x1208)
Format : PGS
Muxing mode : zlib
Codec ID : S_HDMV/PGS
Codec ID/Info : Picture based subtitle format used on BDs/HD-DVDs
Duration : 2 h 8 min
Bit rate : 45.7 kb/s
Count of elements : 3284
Stream size : 42.1 MiB (0%)
Language : Japanese
Default : No
Forced : No
Original source medium : Blu-ray

Text #11
ID : 19
ID in the original source medium : 4617 (0x1209)
Format : PGS
Muxing mode : zlib
Codec ID : S_HDMV/PGS
Codec ID/Info : Picture based subtitle format used on BDs/HD-DVDs
Duration : 2 h 9 min
Bit rate : 327 b/s
Count of elements : 28
Stream size : 311 KiB (0%)
Language : German
Default : No
Forced : No
Original source medium : Blu-ray

Text #12
ID : 20
ID in the original source medium : 4618 (0x120A)
Format : PGS
Muxing mode : zlib
Codec ID : S_HDMV/PGS
Codec ID/Info : Picture based subtitle format used on BDs/HD-DVDs
Duration : 2 h 10 min
Bit rate : 223 b/s
Count of elements : 16
Stream size : 214 KiB (0%)
Language : French
Default : No
Forced : No
Original source medium : Blu-ray

Text #13
ID : 21
ID in the original source medium : 4619 (0x120B)
Format : PGS
Muxing mode : zlib
Codec ID : S_HDMV/PGS
Codec ID/Info : Picture based subtitle format used on BDs/HD-DVDs
Duration : 2 h 5 min
Bit rate : 215 b/s
Count of elements : 18
Stream size : 198 KiB (0%)
Language : Japanese
Default : No
Forced : No
Original source medium : Blu-ray

Menu
00:00:00.000 : Chapter 01
00:06:07.200 : Chapter 02
00:13:36.941 : Chapter 03
00:17:54.323 : Chapter 04
00:23:08.387 : Chapter 05
00:28:10.897 : Chapter 06
00:35:48.271 : Chapter 07
00:43:26.312 : Chapter 08
00:46:38.587 : Chapter 09
00:52:44.161 : Chapter 10
00:57:44.544 : Chapter 11
01:02:39.172 : Chapter 12
01:07:28.502 : Chapter 13
01:14:06.108 : Chapter 14
01:19:02.821 : Chapter 15
01:25:23.368 : Chapter 16
01:32:15.530 : Chapter 17
01:37:12.701 : Chapter 18
01:43:16.899 : Chapter 19
01:46:38.100 : Chapter 20
01:49:19.219 : Chapter 21
01:56:01.454 : Chapter 22
01:59:52.810 : Chapter 23
02:05:57.591 : Chapter 24

本帖子中包含更多资源

您需要 登录 才可以下载或查看,没有帐号?立即注册

x
回复

使用道具 举报

0

主题

385

帖子

2143

积分

金牌会员

Rank: 6Rank: 6

积分
2143
发表于 6 天前 | 显示全部楼层
感谢楼主的分享,支持下!
回复

使用道具 举报

您需要登录后才可以回帖 登录 | 立即注册

本版积分规则

QQ|Archiver|手机版|小黑屋|原盘天堂 好多盘 点击这里给我发消息

GMT+8, 2021-6-13 09:28 , Processed in 0.055209 second(s), 24 queries .

Powered by Discuz! X3.4

Copyright © 2001-2020, Tencent Cloud.

快速回复 返回顶部 返回列表