请选择 进入手机版 | 继续访问电脑版
本站Q群713428235【盘盘多】已满,请新会员加原盘天堂新官方QQ群709708625【好多盘】,验证信息填写您在论坛的会员名,不填会员名的无法入群哈,进群后修改您的群名片名字为您在论坛的会员名,请务必修改,否则群成员多了不知道您是哪个会员。

原盘天堂

 找回密码
 立即注册
京东商城当当华为商城名牌时尚折扣网,一个新型的网上购物平台,我们每周为您精选3~4个国际知名品牌,商品折扣低至2折限时限量售卖,商品囊括时装、护肤品、箱包、皮具、配饰、香水等等,琳琅满目。亿格瑞A10硬盘播放器 苏宁易购
查看: 104|回复: 5

2d蓝光原盘bdmv 布吉 英语原版 boogie.2021.1080p.bluray.avc.dts-hd.ma.5.1[21.47 GB]

[复制链接]

6023

主题

6690

帖子

133万

积分

管理员

Rank: 18Rank: 18Rank: 18Rank: 18Rank: 18

积分
1332455
发表于 2021-6-2 10:53:50 | 显示全部楼层 |阅读模式








◎译  名 布吉/不羁/布吉闯篮关(台)
◎片  名 Boogie
◎年  代 2021
◎产  地 美国
◎类  别 剧情
◎语  言 英语
◎上映日期 2021-03-05(美国)
◎IMDb链接  https://www.imdb.com/title/tt10896398/
◎豆瓣评分 5.3/10 from 62 users
◎豆瓣链接 https://douban.com/subject/35228620/
◎片  长 90分钟
◎导  演 黄颐铭 Eddie Huang
◎编  剧 黄颐铭 Eddie Huang
◎主  演 泰勒·高桥 Taylor Takahashi
       泰勒·佩姬 Taylour Paige
       帕普·斯默克 Pop Smoke
       齐騛 Pamelyn Chee
       杨佩里 Perry Yung
       小豪尔赫·兰登伯格 Jorge Lendeborg Jr.
       麦克·莫 Mike Moh
       多米尼克·隆巴多兹 Domenick Lombardozzi
       阿历萨·马雷卡 Alexa Mareka
       黄颐铭 Eddie Huang
       斯蒂芬·考特尔 Steve Coulter
       许佳倩 Claire Hsu
       本杰明·杰伊·戴维斯 Benjamin Jay Davis
       埃德·亚里士多德 Ed Aristone
       汤米·波 Tommy Bo
       特雷勒·希尔 Terayle Hill
       米斯特·菲茨杰拉德 Mister Fitzgerald

◎标  签 篮球 | 美籍华人 | 梦想 | 移民 | 种族 | 电影 | 剧情 | Drama

◎简  介

  
  一心想要进入NBA打篮球的少年成长故事。在父母莫大的压力下,进入有全额奖学金的菁英大学是唯一的出路,而他则必须在新女友、新学校、球场上的竞争对手以及喘不过气的期望中找到自己的出路。
  
DISC INFO:

Disc Title:     Boogie.2021.1080p.BluRay.AVC.DTS-HD.MA.5.1-NOGRP
Disc Size:      23,054,745,246 bytes
Protection:     AACS
Extras:         BD-Java
BDInfo:         0.7.5.9 (compatible layout created by DVDFab 12.0.3.1)

PLAYLIST REPORT:

Name:                   00800.MPLS  
Length:                 1:29:47.673 (h:m:s.ms)
Size:                   20,372,305,920 bytes
Total Bitrate:          30.25 Mbps

VIDEO:

Codec                   Bitrate             Description     
-----                   -------             -----------     
MPEG-4 AVC Video        23149 kbps          1080p / 23.976 fps / 16:9 / High Profile 4.1

AUDIO:

Codec                           Language        Bitrate         Description     
-----                           --------        -------         -----------     
DTS-HD Master Audio             English         3496 kbps       5.1 / 48 kHz / 3496 kbps / 24-bit (DTS Core: 5.1 / 48 kHz / 1509 kbps / 24-bit)
DTS Audio                       Spanish         768 kbps        5.1 / 48 kHz / 768 kbps / 24-bit
DTS Audio                       French          768 kbps        5.1 / 48 kHz / 768 kbps / 24-bit
Dolby Digital Audio             English         192 kbps        2.0 / 48 kHz / 192 kbps

SUBTITLES:

Codec                           Language        Bitrate         Description     
-----                           --------        -------         -----------     
Presentation Graphics           English         55.564 kbps                     
Presentation Graphics           Spanish         42.015 kbps                     
Presentation Graphics           French          43.535 kbps                     
Presentation Graphics           Spanish         5.142 kbps                     
Presentation Graphics           French          5.553 kbps

Video
ID : 1
ID in the original source medium : 4113 (0x1011)
Format : AVC
Format/Info : Advanced Video Codec
Format profile : [email protected]
Format settings : CABAC / 4 Ref Frames
Format settings, CABAC : Yes
Format settings, Reference frames : 4 frames
Format settings, GOP : M=3, N=12
Codec ID : V_MPEG4/ISO/AVC
Duration : 1 h 29 min
Bit rate mode : Variable
Bit rate : 22.9 Mb/s
Maximum bit rate : 38.0 Mb/s
Width : 1 920 pixels
Height : 1 080 pixels
Display aspect ratio : 16:9
Frame rate mode : Constant
Frame rate : 23.976 (24000/1001) FPS
Color space : YUV
Chroma subsampling : 4:2:0
Bit depth : 8 bits
Scan type : Progressive
Bits/(Pixel*Frame) : 0.461
Stream size : 14.4 GiB (81%)
Language : English
Default : No
Forced : No
Original source medium : Blu-ray

Audio #1
ID : 2
ID in the original source medium : 4352 (0x1100)
Format : DTS XLL
Format/Info : Digital Theater Systems
Commercial name : DTS-HD Master Audio
Codec ID : A_DTS
Duration : 1 h 29 min
Bit rate mode : Variable
Bit rate : 3 496 kb/s
Channel(s) : 6 channels
Channel layout : C L R Ls Rs LFE
Sampling rate : 48.0 kHz
Frame rate : 93.750 FPS (512 SPF)
Bit depth : 24 bits
Compression mode : Lossless
Stream size : 2.19 GiB (12%)
Title : DTS-HD MA 5.1
Language : English
Default : Yes
Forced : No
Original source medium : Blu-ray

Audio #2
ID : 3
ID in the original source medium : 4353 (0x1101)
Format : DTS
Format/Info : Digital Theater Systems
Codec ID : A_DTS
Duration : 1 h 29 min
Bit rate mode : Constant
Bit rate : 768 kb/s
Channel(s) : 6 channels
Channel layout : C L R Ls Rs LFE
Sampling rate : 48.0 kHz
Frame rate : 93.750 FPS (512 SPF)
Bit depth : 24 bits
Compression mode : Lossy
Stream size : 493 MiB (3%)
Title : DTS 5.1
Language : Spanish
Default : No
Forced : No
Original source medium : Blu-ray

Audio #3
ID : 4
ID in the original source medium : 4354 (0x1102)
Format : DTS
Format/Info : Digital Theater Systems
Codec ID : A_DTS
Duration : 1 h 29 min
Bit rate mode : Constant
Bit rate : 768 kb/s
Channel(s) : 6 channels
Channel layout : C L R Ls Rs LFE
Sampling rate : 48.0 kHz
Frame rate : 93.750 FPS (512 SPF)
Bit depth : 24 bits
Compression mode : Lossy
Stream size : 493 MiB (3%)
Title : DTS 5.1
Language : French
Default : No
Forced : No
Original source medium : Blu-ray

Audio #4
ID : 5
ID in the original source medium : 4355 (0x1103)
Format : AC-3
Format/Info : Audio Coding 3
Commercial name : Dolby Digital
Codec ID : A_AC3
Duration : 1 h 29 min
Bit rate mode : Constant
Bit rate : 192 kb/s
Channel(s) : 2 channels
Channel layout : L R
Sampling rate : 48.0 kHz
Frame rate : 31.250 FPS (1536 SPF)
Compression mode : Lossy
Stream size : 123 MiB (1%)
Title : DD 2.0
Language : English
Service kind : Complete Main
Default : No
Forced : No
Original source medium : Blu-ray

Text #1
ID : 6
Format : UTF-8
Codec ID : S_TEXT/UTF8
Codec ID/Info : UTF-8 Plain Text
Duration : 1 h 27 min
Bit rate : 75 b/s
Count of elements : 1529
Stream size : 48.6 KiB (0%)
Title : English-SRT
Language : English
Default : Yes
Forced : No

Text #2
ID : 7
ID in the original source medium : 4608 (0x1200)
Format : PGS
Muxing mode : zlib
Codec ID : S_HDMV/PGS
Codec ID/Info : Picture based subtitle format used on BDs/HD-DVDs
Duration : 1 h 28 min
Bit rate : 56.2 kb/s
Count of elements : 3346
Stream size : 35.7 MiB (0%)
Title : English-PGS
Language : English
Default : No
Forced : No
Original source medium : Blu-ray

Text #3
ID : 8
ID in the original source medium : 4609 (0x1201)
Format : PGS
Muxing mode : zlib
Codec ID : S_HDMV/PGS
Codec ID/Info : Picture based subtitle format used on BDs/HD-DVDs
Duration : 1 h 29 min
Bit rate : 42.2 kb/s
Count of elements : 2820
Stream size : 27.0 MiB (0%)
Title : Spanish-PGS
Language : Spanish
Default : No
Forced : No
Original source medium : Blu-ray

Text #4
ID : 9
ID in the original source medium : 4610 (0x1202)
Format : PGS
Muxing mode : zlib
Codec ID : S_HDMV/PGS
Codec ID/Info : Picture based subtitle format used on BDs/HD-DVDs
Duration : 1 h 29 min
Bit rate : 43.8 kb/s
Count of elements : 2816
Stream size : 28.0 MiB (0%)
Title : French-PGS
Language : French
Default : No
Forced : No
Original source medium : Blu-ray

Text #5
ID : 10
ID in the original source medium : 4611 (0x1203)
Format : PGS
Muxing mode : zlib
Codec ID : S_HDMV/PGS
Codec ID/Info : Picture based subtitle format used on BDs/HD-DVDs
Duration : 1 h 28 min
Bit rate : 5 191 b/s
Count of elements : 344
Stream size : 3.30 MiB (0%)
Title : Spanish-FORCED-PGS
Language : Spanish
Default : No
Forced : No
Original source medium : Blu-ray

Text #6
ID : 11
ID in the original source medium : 4612 (0x1204)
Format : PGS
Muxing mode : zlib
Codec ID : S_HDMV/PGS
Codec ID/Info : Picture based subtitle format used on BDs/HD-DVDs
Duration : 1 h 29 min
Bit rate : 5 583 b/s
Count of elements : 348
Stream size : 3.57 MiB (0%)
Title : French-FORCED-PGS
Language : French
Default : No
Forced : No
Original source medium : Blu-ray

Menu
00:00:00.000 : Chapter 01
00:04:53.293 : Chapter 02
00:10:14.864 : Chapter 03
00:12:06.392 : Chapter 04
00:16:47.673 : Chapter 05
00:22:59.920 : Chapter 06
00:25:49.256 : Chapter 07
00:30:12.769 : Chapter 08
00:35:17.573 : Chapter 09
00:40:00.022 : Chapter 10
00:44:52.106 : Chapter 11
00:49:18.497 : Chapter 12
00:55:10.598 : Chapter 13
00:59:42.495 : Chapter 14
01:05:55.034 : Chapter 15
01:09:54.273 : Chapter 16
01:11:27.157 : Chapter 17
01:15:11.924 : Chapter 18
01:20:38.083 : Chapter 19
01:25:39.217 : Chapter 20

本帖子中包含更多资源

您需要 登录 才可以下载或查看,没有帐号?立即注册

x
回复

使用道具 举报

0

主题

438

帖子

3442

积分

论坛元老

Rank: 8Rank: 8

积分
3442
发表于 2021-6-2 18:49:24 | 显示全部楼层
楼主发贴辛苦了,谢谢楼主分享
回复

使用道具 举报

0

主题

385

帖子

2143

积分

金牌会员

Rank: 6Rank: 6

积分
2143
发表于 2021-6-2 19:19:02 | 显示全部楼层
楼主辛苦了,感谢分享!
回复

使用道具 举报

0

主题

753

帖子

3730

积分

论坛元老

Rank: 8Rank: 8

积分
3730
发表于 2021-6-3 11:03:44 | 显示全部楼层
感谢分享精彩电影。
回复

使用道具 举报

0

主题

316

帖子

1453

积分

金牌会员

Rank: 6Rank: 6

积分
1453
发表于 2021-6-4 16:59:45 | 显示全部楼层
感谢楼主分享
回复

使用道具 举报

0

主题

71

帖子

369

积分

中级会员

Rank: 3Rank: 3

积分
369
发表于 前天 22:12 | 显示全部楼层
励志,感谢分享
回复

使用道具 举报

您需要登录后才可以回帖 登录 | 立即注册

本版积分规则

QQ|Archiver|手机版|小黑屋|原盘天堂 好多盘 点击这里给我发消息

GMT+8, 2021-6-13 10:24 , Processed in 0.060325 second(s), 25 queries .

Powered by Discuz! X3.4

Copyright © 2001-2020, Tencent Cloud.

快速回复 返回顶部 返回列表