请选择 进入手机版 | 继续访问电脑版
本站Q群713428235【盘盘多】已满,请新会员加原盘天堂新官方QQ群709708625【好多盘】,验证信息填写您在论坛的会员名,不填会员名的无法入群哈,进群后修改您的群名片名字为您在论坛的会员名,请务必修改,否则群成员多了不知道您是哪个会员。

原盘天堂

 找回密码
 立即注册
京东商城当当华为商城名牌时尚折扣网,一个新型的网上购物平台,我们每周为您精选3~4个国际知名品牌,商品折扣低至2折限时限量售卖,商品囊括时装、护肤品、箱包、皮具、配饰、香水等等,琳琅满目。亿格瑞A10硬盘播放器 苏宁易购
查看: 65|回复: 2

2d蓝光原盘bdmv 骨肉 英语原版 son.2021.1080p.bluray.avc.dts-hd.ma.5.1[18.83 GB]

[复制链接]

6023

主题

6690

帖子

133万

积分

管理员

Rank: 18Rank: 18Rank: 18Rank: 18Rank: 18

积分
1332455
发表于 2021-6-2 09:19:58 | 显示全部楼层 |阅读模式








◎译  名 骨肉/爱子/恶魔之子
◎片  名 Son
◎年  代 2021
◎产  地 爱尔兰
◎类  别 惊悚/恐怖
◎语  言 英语
◎上映日期 2021-02-26(加拿大)
◎IMDb链接  https://www.imdb.com/title/tt5624466/
◎豆瓣评分 5.2/10 from 410 users
◎豆瓣链接 https://douban.com/subject/30301194/
◎片  长 98分钟
◎导  演 伊万·卡瓦纳 Ivan Kavanagh
◎编  剧 伊万·卡瓦纳 Ivan Kavanagh
◎主  演 埃米尔·赫斯基 Emile Hirsch
       安迪·马蒂切克 Andi Matichak
       卢克·大卫·布鲁姆 Luke David Blumm
       罗科·西斯托 Rocco Sisto
       瓦妮塔·沃姆斯利 Wanetah Walmsley
       克兰斯顿·约翰逊 Cranston Johnson
       艾琳·布拉德利·丹格 Erin Bradley Dangar
       Blaine Maye
       亚当·亨斯利 Adam Henslee

◎标  签 恐怖 | 惊悚 | 爱尔兰 | 邪教 | 2021 | 电影 | 爱尔兰电影 | 美国电影

◎简  介

  
  安迪·马蒂切克([月光光心慌慌])、埃米尔·赫斯基([荒野生存])将主演恐怖片[儿子](Son,暂译),伊万·卡瓦纳([永生之地])自编自导。影片讲述一位母亲在她儿时曾逃脱邪教组织。而她成为母亲之后,邪教组织的成员让她的孩子感染上了一种可怕的疾病,这种疾病的治愈方法比她想象中的更可怕。该片将于2020年1月在美国开拍。
  
DISC INFO:

Disc Title:     Son.2021.1080p.BluRay.AVC.DTS-HD.MA.5.1-NOGRP
Disc Size:      20,219,785,937 bytes
Protection:     AACS
BDInfo:         0.7.5.9 (compatible layout created by DVDFab 12.0.2.9)

PLAYLIST REPORT:

Name:                   00005.MPLS  
Length:                 1:38:07.673 (h:m:s.ms)
Size:                   17,027,438,592 bytes
Total Bitrate:          23.14 Mbps

VIDEO:

Codec                   Bitrate             Description     
-----                   -------             -----------     
MPEG-4 AVC Video        19973 kbps          1080p / 23.976 fps / 16:9 / High Profile 4.1

AUDIO:

Codec                           Language        Bitrate         Description     
-----                           --------        -------         -----------     
DTS-HD Master Audio             English         1824 kbps       5.1 / 48 kHz / 1824 kbps / 16-bit (DTS Core: 5.1 / 48 kHz / 1509 kbps / 16-bit)

SUBTITLES:

Codec                           Language        Bitrate         Description     
-----                           --------        -------         -----------     
Presentation Graphics           English         38.962 kbps                     
Presentation Graphics           Spanish         29.764 kbps  

Video
ID : 1
ID in the original source medium : 4113 (0x1011)
Format : AVC
Format/Info : Advanced Video Codec
Format profile : [email protected]
Format settings : CABAC / 4 Ref Frames
Format settings, CABAC : Yes
Format settings, Reference frames : 4 frames
Codec ID : V_MPEG4/ISO/AVC
Duration : 1 h 38 min
Bit rate mode : Variable
Bit rate : 20.0 Mb/s
Maximum bit rate : 35.0 Mb/s
Width : 1 920 pixels
Height : 1 080 pixels
Display aspect ratio : 16:9
Frame rate mode : Constant
Frame rate : 23.976 (24000/1001) FPS
Standard : NTSC
Color space : YUV
Chroma subsampling : 4:2:0
Bit depth : 8 bits
Scan type : Progressive
Bits/(Pixel*Frame) : 0.402
Stream size : 13.7 GiB (92%)
Language : English
Default : No
Forced : No
Color range : Limited
Color primaries : BT.709
Transfer characteristics : BT.709
Matrix coefficients : BT.709
Original source medium : Blu-ray

Audio
ID : 2
ID in the original source medium : 4352 (0x1100)
Format : DTS XLL
Format/Info : Digital Theater Systems
Commercial name : DTS-HD Master Audio
Codec ID : A_DTS
Duration : 1 h 38 min
Bit rate mode : Variable
Bit rate : 1 824 kb/s
Channel(s) : 6 channels
Channel layout : C L R Ls Rs LFE
Sampling rate : 48.0 kHz
Frame rate : 93.750 FPS (512 SPF)
Bit depth : 16 bits
Compression mode : Lossless
Stream size : 1.25 GiB (8%)
Title : DTS-HD MA 5.1
Language : English
Default : Yes
Forced : No
Original source medium : Blu-ray

Text #1
ID : 3
Format : UTF-8
Codec ID : S_TEXT/UTF8
Codec ID/Info : UTF-8 Plain Text
Duration : 1 h 35 min
Bit rate : 48 b/s
Count of elements : 1408
Stream size : 33.9 KiB (0%)
Title : English-SRT
Language : English
Default : Yes
Forced : No

Text #2
ID : 4
ID in the original source medium : 4608 (0x1200)
Format : PGS
Muxing mode : zlib
Codec ID : S_HDMV/PGS
Codec ID/Info : Picture based subtitle format used on BDs/HD-DVDs
Duration : 1 h 35 min
Bit rate : 40.0 kb/s
Count of elements : 3136
Stream size : 27.3 MiB (0%)
Title : English-PGS
Language : English
Default : No
Forced : No
Original source medium : Blu-ray

Text #3
ID : 5
ID in the original source medium : 4609 (0x1201)
Format : PGS
Muxing mode : zlib
Codec ID : S_HDMV/PGS
Codec ID/Info : Picture based subtitle format used on BDs/HD-DVDs
Duration : 1 h 32 min
Bit rate : 31.5 kb/s
Count of elements : 2270
Stream size : 20.9 MiB (0%)
Title : Spanish-PGS
Language : Spanish
Default : No
Forced : No
Original source medium : Blu-ray

Menu
00:00:00.000 : Chapter 01
00:11:29.772 : Chapter 02
00:22:49.451 : Chapter 03
00:33:20.081 : Chapter 04
00:43:45.623 : Chapter 05
00:53:43.386 : Chapter 06
01:06:01.290 : Chapter 07
01:17:04.786 : Chapter 08
01:27:08.973 : Chapter 09

本帖子中包含更多资源

您需要 登录 才可以下载或查看,没有帐号?立即注册

x
回复

使用道具 举报

0

主题

753

帖子

3730

积分

论坛元老

Rank: 8Rank: 8

积分
3730
发表于 2021-6-2 10:06:12 | 显示全部楼层
支持一下分享好资源
回复

使用道具 举报

0

主题

71

帖子

369

积分

中级会员

Rank: 3Rank: 3

积分
369
发表于 3 天前 | 显示全部楼层
支持分享资源
回复

使用道具 举报

您需要登录后才可以回帖 登录 | 立即注册

本版积分规则

QQ|Archiver|手机版|小黑屋|原盘天堂 好多盘 点击这里给我发消息

GMT+8, 2021-6-13 10:03 , Processed in 0.059898 second(s), 25 queries .

Powered by Discuz! X3.4

Copyright © 2001-2020, Tencent Cloud.

快速回复 返回顶部 返回列表