请选择 进入手机版 | 继续访问电脑版
本站Q群713428235【盘盘多】已满,请新会员加原盘天堂新官方QQ群709708625【好多盘】,验证信息填写您在论坛的会员名,不填会员名的无法入群哈,进群后修改您的群名片名字为您在论坛的会员名,请务必修改,否则群成员多了不知道您是哪个会员。

原盘天堂

 找回密码
 立即注册
京东商城当当华为商城名牌时尚折扣网,一个新型的网上购物平台,我们每周为您精选3~4个国际知名品牌,商品折扣低至2折限时限量售卖,商品囊括时装、护肤品、箱包、皮具、配饰、香水等等,琳琅满目。亿格瑞A10硬盘播放器 苏宁易购
查看: 59|回复: 6

4k蓝光原盘bdmv 警察与卡车强盗 英语原版 smokey.and.the.bandit.1977.2160p.bluray.hevc.truehd.7.1.atmos[61.78 GB]

[复制链接]

6023

主题

6690

帖子

133万

积分

管理员

Rank: 18Rank: 18Rank: 18Rank: 18Rank: 18

积分
1332463
发表于 2021-6-2 06:50:36 | 显示全部楼层 |阅读模式








警察与卡车强盗 Smokey and the Bandit (1977)

◎译  名 警察与卡车强盗/横冲直撞斗飞车/追追追
◎片  名 Smokey and the Bandit
◎年  代 1977
◎产  地 美国
◎类  别 喜剧/动作
◎语  言 英语
◎上映日期 1977-05-27(美国)
◎IMDb链接  https://www.imdb.com/title/tt0076729/
◎豆瓣评分 6.9/10 from 344 users
◎豆瓣链接 https://douban.com/subject/1293806/
◎片  长 96 分钟
◎导  演 哈尔·尼达姆 Hal Needham
◎编  剧 艾伦·曼德尔 Alan Mandel / 查尔斯·谢尔 Charles Shyer / 哈尔·尼达姆 Hal Needham / 詹姆斯·李·巴雷特 James Lee Barrett / 罗伯特·L·利维 Robert L. Levy
◎主  演 伯特·雷诺兹 Burt Reynolds
       保罗·威廉姆斯 Paul Williams
       莎莉·菲尔德 Sally Field
       杰基·格利森 Jackie Gleason
       杰瑞·里德 Jerry Reed
       迈克·亨利 Mike Henry
       帕特·麦考密克 Pat McCormick
       梅肯·麦卡尔曼 Macon McCalman
       琳达·麦克卢尔 Linda McClure
       苏珊·麦基弗 Susan McIver
       Michael McManus

◎标  签 喜剧 | 公路 | 美国 | 1977 | 美国电影 | 犯罪 | 1970s | BurtReynolds

◎简  介

  
  剧情简介:一个绰号”土匪”的卡车司机跟别人打赌,说是他能在28小时内从德克萨斯州到乔治亚州的亚特兰大.为了赶时间,飞车,超速是免不了的,公路警察当然是不会坐视不理的,于是一路追赶拦截.一路上险象环生,可就是抓不住他.
  
  简    评:虽然本片的故事简单和只能成为飞车场面的籍口,但片中的动作部分却拍出了漫画般的生动热闹,充分满足观众的感官层次要求,几位主角也演出了特色.
  

◎获奖情况

  第50届奥斯卡金像奖  (1978)
  最佳剪辑(提名) 安杰洛·罗斯 / 沃尔特·汉内曼

DISC INFO:

Disc Title:     Smokey.and.the.Bandit.1977.COMPLETE.UHD.BLURAY-B0MBARDiERS
Disc Size:      66,340,817,394 bytes
Protection:     AACS2
Extras:         Ultra HD, BD-Java
BDInfo:         0.7.5.9 (compatible layout created by DVDFab 12.0.2.9)

PLAYLIST REPORT:

Name:                   00800.MPLS  
Length:                 1:35:50.744 (h:m:s.ms)
Size:                   60,014,174,208 bytes
Total Bitrate:          83.49 Mbps

VIDEO:

Codec                   Bitrate             Description     
-----                   -------             -----------     
MPEG-H HEVC Video       73351 kbps          2160p / 23.976 fps / 16:9 / Main 10 @ Level 5.1 @ High / 4:2:0 / 10 bits / 1000nits / HDR10 / BT.2020

AUDIO:

Codec                           Language        Bitrate         Description     
-----                           --------        -------         -----------     
Dolby TrueHD/Atmos Audio        English         3976 kbps       7.1+11 objects / 48 kHz / 3528 kbps / 24-bit (AC3 Core: 5.1 / 48 kHz / 448 kbps)
DTS Audio                       Spanish         768 kbps        2.0 / 48 kHz / 768 kbps / 24-bit
DTS Audio                       French          768 kbps        2.0 / 48 kHz / 768 kbps / 24-bit

SUBTITLES:

Codec                           Language        Bitrate         Description     
-----                           --------        -------         -----------     
Presentation Graphics           English         48.015 kbps                     
Presentation Graphics           Spanish         37.975 kbps                     
Presentation Graphics           French          38.987 kbps                     
Presentation Graphics           Spanish         0.341 kbps                     
Presentation Graphics           French          0.503 kbps   

Video
ID : 1
ID in the original source medium : 4113 (0x1011)
Format : HEVC
Format/Info : High Efficiency Video Coding
Format profile : Main [email protected]@High
HDR format : SMPTE ST 2086, HDR10 compatible
Codec ID : V_MPEGH/ISO/HEVC
Duration : 1 h 35 min
Bit rate : 73.3 Mb/s
Width : 3 840 pixels
Height : 2 160 pixels
Display aspect ratio : 16:9
Frame rate mode : Constant
Frame rate : 23.976 (24000/1001) FPS
Color space : YUV
Chroma subsampling : 4:2:0 (Type 2)
Bit depth : 10 bits
Bits/(Pixel*Frame) : 0.369
Stream size : 49.1 GiB (88%)
Language : English
Default : No
Forced : No
Color range : Limited
Color primaries : BT.2020
Transfer characteristics : PQ
Matrix coefficients : BT.2020 non-constant
Mastering display color primaries : Display P3
Mastering display luminance : min: 0.0050 cd/m2, max: 1000 cd/m2
Maximum Content Light Level : 1000 cd/m2
Maximum Frame-Average Light Level : 111 cd/m2
Original source medium : Blu-ray

Audio #1
ID : 2
ID in the original source medium : 4352 (0x1100)
Format : MLP FBA 16-ch
Format/Info : Meridian Lossless Packing FBA with 16-channel presentation
Commercial name : Dolby TrueHD with Dolby Atmos
Codec ID : A_TRUEHD
Duration : 1 h 35 min
Bit rate mode : Variable
Bit rate : 3 527 kb/s
Maximum bit rate : 5 646 kb/s
Channel(s) : 8 channels
Channel layout : L R C LFE Ls Rs Lb Rb
Sampling rate : 48.0 kHz
Frame rate : 1 200.000 FPS (40 SPF)
Bit depth : 24 bits
Compression mode : Lossless
Stream size : 2.36 GiB (4%)
Title : TrueHD 7.1 Atmos
Language : English
Default : Yes
Forced : No
Original source medium : Blu-ray
Number of dynamic objects : 11
Bed channel count : 1 channel
Bed channel configuration : LFE

Audio #2
ID : 3
Format : DTS XLL
Format/Info : Digital Theater Systems
Commercial name : DTS-HD Master Audio
Codec ID : A_DTS
Duration : 1 h 35 min
Bit rate mode : Variable
Bit rate : 4 112 kb/s
Channel(s) : 8 channels
Channel layout : C L R LFE Lb Rb Lss Rss
Sampling rate : 48.0 kHz
Frame rate : 93.750 FPS (512 SPF)
Bit depth : 24 bits
Compression mode : Lossless
Stream size : 2.75 GiB (5%)
Title : DTS-HD MA 7.1
Language : English
Default : No
Forced : No

Audio #3
ID : 4
ID in the original source medium : 4352 (0x1100)
Format : AC-3
Format/Info : Audio Coding 3
Commercial name : Dolby Digital
Codec ID : A_AC3
Duration : 1 h 35 min
Bit rate mode : Constant
Bit rate : 448 kb/s
Channel(s) : 6 channels
Channel layout : L R C LFE Ls Rs
Sampling rate : 48.0 kHz
Frame rate : 31.250 FPS (1536 SPF)
Compression mode : Lossy
Stream size : 307 MiB (1%)
Title : DD 5.1
Language : English
Service kind : Complete Main
Default : No
Forced : No
Original source medium : Blu-ray

Audio #4
ID : 5
ID in the original source medium : 4353 (0x1101)
Format : DTS
Format/Info : Digital Theater Systems
Codec ID : A_DTS
Duration : 1 h 35 min
Bit rate mode : Constant
Bit rate : 768 kb/s
Channel(s) : 2 channels
Channel layout : L R
Sampling rate : 48.0 kHz
Frame rate : 93.750 FPS (512 SPF)
Bit depth : 24 bits
Compression mode : Lossy
Stream size : 526 MiB (1%)
Title : DTS 2.0
Language : Spanish
Default : No
Forced : No
Original source medium : Blu-ray

Audio #5
ID : 6
ID in the original source medium : 4354 (0x1102)
Format : DTS
Format/Info : Digital Theater Systems
Codec ID : A_DTS
Duration : 1 h 35 min
Bit rate mode : Constant
Bit rate : 768 kb/s
Channel(s) : 2 channels
Channel layout : L R
Sampling rate : 48.0 kHz
Frame rate : 93.750 FPS (512 SPF)
Bit depth : 24 bits
Compression mode : Lossy
Stream size : 526 MiB (1%)
Title : DTS 2.0
Language : French
Default : No
Forced : No
Original source medium : Blu-ray

Text #1
ID : 7
Format : UTF-8
Codec ID : S_TEXT/UTF8
Codec ID/Info : UTF-8 Plain Text
Duration : 1 h 34 min
Bit rate : 70 b/s
Count of elements : 1375
Stream size : 48.9 KiB (0%)
Title : English-SRT
Language : English
Default : Yes
Forced : No

Text #2
ID : 8
ID in the original source medium : 4768 (0x12A0)
Format : PGS
Muxing mode : zlib
Codec ID : S_HDMV/PGS
Codec ID/Info : Picture based subtitle format used on BDs/HD-DVDs
Duration : 1 h 35 min
Bit rate : 48.3 kb/s
Count of elements : 2955
Stream size : 32.9 MiB (0%)
Title : English-PGS
Language : English
Default : No
Forced : No
Original source medium : Blu-ray

Text #3
ID : 9
ID in the original source medium : 4769 (0x12A1)
Format : PGS
Muxing mode : zlib
Codec ID : S_HDMV/PGS
Codec ID/Info : Picture based subtitle format used on BDs/HD-DVDs
Duration : 1 h 33 min
Bit rate : 39.0 kb/s
Count of elements : 2320
Stream size : 26.0 MiB (0%)
Title : Spanish-PGS
Language : Spanish
Default : No
Forced : No
Original source medium : Blu-ray

Text #4
ID : 10
ID in the original source medium : 4770 (0x12A2)
Format : PGS
Muxing mode : zlib
Codec ID : S_HDMV/PGS
Codec ID/Info : Picture based subtitle format used on BDs/HD-DVDs
Duration : 1 h 34 min
Bit rate : 39.4 kb/s
Count of elements : 2509
Stream size : 26.7 MiB (0%)
Title : French-PGS
Language : French
Default : No
Forced : No
Original source medium : Blu-ray

Text #5
ID : 11
ID in the original source medium : 4771 (0x12A3)
Format : PGS
Muxing mode : zlib
Codec ID : S_HDMV/PGS
Codec ID/Info : Picture based subtitle format used on BDs/HD-DVDs
Duration : 1 h 28 min
Bit rate : 370 b/s
Count of elements : 28
Stream size : 240 KiB (0%)
Title : Spanish-FORCED-PGS
Language : Spanish
Default : No
Forced : No
Original source medium : Blu-ray

Text #6
ID : 12
ID in the original source medium : 4772 (0x12A4)
Format : PGS
Muxing mode : zlib
Codec ID : S_HDMV/PGS
Codec ID/Info : Picture based subtitle format used on BDs/HD-DVDs
Duration : 1 h 28 min
Bit rate : 543 b/s
Count of elements : 38
Stream size : 353 KiB (0%)
Title : French-FORCED-PGS
Language : French
Default : No
Forced : No
Original source medium : Blu-ray

Menu
00:00:00.000 : Chapter 01
00:04:57.005 : Chapter 02
00:07:27.405 : Chapter 03
00:18:01.997 : Chapter 04
00:21:16.024 : Chapter 05
00:23:55.892 : Chapter 06
00:32:15.558 : Chapter 07
00:41:09.133 : Chapter 08
00:43:42.202 : Chapter 09
00:53:48.725 : Chapter 10
01:07:01.267 : Chapter 11
01:12:06.572 : Chapter 12
01:19:11.538 : Chapter 13
01:24:39.783 : Chapter 14
01:27:28.576 : Chapter 15
01:32:17.198 : Chapter 16

本帖子中包含更多资源

您需要 登录 才可以下载或查看,没有帐号?立即注册

x
回复

使用道具 举报

0

主题

753

帖子

3730

积分

论坛元老

Rank: 8Rank: 8

积分
3730
发表于 2021-6-2 10:07:55 | 显示全部楼层
支持一下分享好资源
回复

使用道具 举报

0

主题

385

帖子

2143

积分

金牌会员

Rank: 6Rank: 6

积分
2143
发表于 2021-6-2 18:40:08 | 显示全部楼层
楼主辛苦了,感谢分享!
回复

使用道具 举报

0

主题

753

帖子

3730

积分

论坛元老

Rank: 8Rank: 8

积分
3730
发表于 2021-6-4 11:02:47 | 显示全部楼层

不错,支持下楼主
回复

使用道具 举报

0

主题

753

帖子

3730

积分

论坛元老

Rank: 8Rank: 8

积分
3730
发表于 5 天前 | 显示全部楼层
发贴辛苦,谢谢分享
回复

使用道具 举报

0

主题

385

帖子

2143

积分

金牌会员

Rank: 6Rank: 6

积分
2143
发表于 3 天前 | 显示全部楼层
辛苦了,感谢分享!
回复

使用道具 举报

0

主题

753

帖子

3730

积分

论坛元老

Rank: 8Rank: 8

积分
3730
发表于 前天 10:31 | 显示全部楼层
感谢楼主分享资源
回复

使用道具 举报

您需要登录后才可以回帖 登录 | 立即注册

本版积分规则

QQ|Archiver|手机版|小黑屋|原盘天堂 好多盘 点击这里给我发消息

GMT+8, 2021-6-13 11:09 , Processed in 0.056863 second(s), 24 queries .

Powered by Discuz! X3.4

Copyright © 2001-2020, Tencent Cloud.

快速回复 返回顶部 返回列表