请选择 进入手机版 | 继续访问电脑版
本站Q群713428235【盘盘多】已满,请新会员加原盘天堂新官方QQ群709708625【好多盘】,验证信息填写您在论坛的会员名,不填会员名的无法入群哈,进群后修改您的群名片名字为您在论坛的会员名,请务必修改,否则群成员多了不知道您是哪个会员。

原盘天堂

 找回密码
 立即注册
京东商城当当华为商城名牌时尚折扣网,一个新型的网上购物平台,我们每周为您精选3~4个国际知名品牌,商品折扣低至2折限时限量售卖,商品囊括时装、护肤品、箱包、皮具、配饰、香水等等,琳琅满目。亿格瑞A10硬盘播放器 苏宁易购
查看: 62|回复: 4

4k蓝光原盘bdmv 窈窕淑女 英语原版 my.fair.lady.1964.2160p.bluray.hevc.truehd.7.1[90.05 GB]

[复制链接]

6023

主题

6690

帖子

133万

积分

管理员

Rank: 18Rank: 18Rank: 18Rank: 18Rank: 18

积分
1332455
发表于 2021-6-1 10:22:39 | 显示全部楼层 |阅读模式








窈窕淑女 My Fair Lady (1964)

◎译  名 窈窕淑女
◎片  名 My Fair Lady
◎年  代 1964
◎产  地 美国
◎类  别 剧情/爱情/歌舞
◎语  言 英语
◎上映日期 1964-12-25
◎IMDb链接  https://www.imdb.com/title/tt0058385/
◎豆瓣评分 8.2/10 from 83457 users
◎豆瓣链接 https://douban.com/subject/1297965/
◎片  长 172分钟
◎导  演 乔治·库克 George Cukor
◎编  剧 艾伦·杰伊·勒纳 Alan Jay Lerner / 萧伯纳 George Bernard Shaw
◎主  演 奥黛丽·赫本 Audrey Hepburn
       雷克斯·哈里森 Rex Harrison
       斯坦利·霍洛威 Stanley Holloway
       维尔弗雷德·海德-怀特 Wilfrid Hyde-White
       格拉黛丝·库珀 Gladys Cooper
       杰瑞米·布雷特 Jeremy Brett
       西奥多·比凯尔 Theodore Bikel
       莫娜·沃什伯恩 Mona Washbourne
       伊索贝尔·埃尔索姆 Isobel Elsom
       约翰·霍兰 John Holland
       约翰·安德逊 John Alderson
       沃尔特·培根 Walter Bacon
       弗兰克·贝克 Frank Baker
       威廉姆·巴克利 William Beckley
       玛乔丽·本尼特 Marjorie Bennett
       Oscar Beregi Jr.
       贝蒂·布莱丝 Betty Blythe
       Diana Bourbon
       Tex Brodus
       沃尔特·伯克 Walter Burke
       Colin Campbell
       珍妮·卡森 Jeannie Carson
       汤姆·空德 Tom Cound
       Jennifer Crier
       莫里斯·达利莫尔 Maurice Dallimore
       亨利·丹尼尔 Henry Daniell
       罗伊迪安 Roy Dean
       Pauline Drake
       Harvey B. Dunn
       Joe Evans
       Ray Foster
       Charles E. Fredericks
       Ayllene Gibbons
       Stuart Hall
       Clive Halliday
       山姆·哈里斯 Sam Harris
       Marjory Hawtrey
       George Holmes
       James W. Horan
       Kendrick Huxham
       莉莲·肯布尔-库珀 Lillian Kemble-Cooper
       菲莉斯·肯尼迪 Phyllis Kennedy
       Colin Kenny
       Peter Ladefoged
       阿尔玛·劳顿 Alma Lawton
       奎妮·伦纳德 Queenie Leonard
       Moyna MacGill
       罗利·梅恩 Laurie Main
       Sidney Marion
       Philo McCullough
       Owen McGiveney
       约翰·麦克利亚姆 John McLiam
       约翰·米彻姆 John Mitchum
       Mike Morelli
       Barbara Morrison
       Marlene Morrow
       阿兰·纳皮尔 Alan Napier
       马妮·尼克松 Marni Nixon
       James O'Hara
       John Holland

◎标  签 奥黛丽·赫本 | 经典 | 美国 | 爱情 | 歌舞 | 窈窕淑女 | AudreyHepburn | 喜剧

◎简  介

  
  卖花女伊莉莎.杜利特尔,长得眉清目秀,聪明乖巧,但出身寒微,家境贫寒。她每天到街头叫卖鲜花,赚点钱补贴家用。一天,伊莉莎低俗的嗓音引起了语言学家希金斯教授的注意,教授夸口只要经过他的训练,卖花女也可以成为贵夫人。伊莉莎觉得教授说的话对她是一个机会,就主动上门请求教授训练她。教授的朋友皮克林和他打赌,如果让伊莉莎以贵夫人的身份出席6个月后将举办的大使游园会而不被人识破真相,那么皮克林愿意承担一切试验费用和伊莉莎的学费,这激起了教授的斗志,希金斯欣然接受了挑战。他是不甘示弱的,他从最基本的字母发音开始教起。希金斯是个精力旺盛和讲究科学的学者,对每一感兴趣件事都能废寝忘食。他胸怀坦荡、丝毫不怀任何恶意,但他又像孩子一样,毫不顾及他人的感情,对伊莉莎严加训练。
  

◎获奖情况

  第37届奥斯卡金像奖  (1965)
  最佳影片 杰克·L·华纳
  最佳导演 乔治·库克
  最佳男主角 雷克斯·哈里森
  最佳男配角(提名) 斯坦利·霍洛威
  最佳女配角(提名) 格拉黛丝·库珀
  最佳改编剧本(提名) 艾伦·杰伊·勒纳
  彩色片最佳摄影 老哈里·斯特拉德林
  最佳剪辑(提名) 威廉·H·齐格勒
  最佳音响 乔治·格罗夫斯
  彩色片最佳艺术指导和布景 吉恩·艾伦 / 乔治·詹姆斯·霍普金斯 / 塞西尔·比顿
  彩色片最佳服装设计 塞西尔·比顿
  最佳改编配乐 安德列·普列文

DISC INFO:

Disc Title:     My.Fair.Lady.1964.2160p.BluRay.HEVC.TrueHD.7.1-ESiR
Disc Size:      96,672,226,721 bytes
Protection:     AACS2
Extras:         Ultra HD, BD-Java
BDInfo:         0.7.5.9 (compatible layout created by DVDFab 12.0.2.9)

PLAYLIST REPORT:

Name:                   00040.MPLS  
Length:                 2:53:07.794 (h:m:s.ms)
Size:                   95,659,720,704 bytes
Total Bitrate:          73.67 Mbps

(*) Indicates included stream hidden by this playlist.

VIDEO:

Codec                   Bitrate             Description     
-----                   -------             -----------     
MPEG-H HEVC Video       56745 kbps          2160p / 23.976 fps / 16:9 / Main 10 @ Level 5.1 @ High / 4:2:0 / 10 bits / 4000nits / HDR10 / BT.2020
* MPEG-H HEVC Video     3978 kbps (6.55%)   1080p / 23.976 fps / 16:9 / Main 10 @ Level 5.1 @ High / 4:2:0 / 10 bits / 4000nits / Dolby Vision FEL / BT.2020

AUDIO:

Codec                           Language        Bitrate         Description     
-----                           --------        -------         -----------     
Dolby TrueHD Audio              English         6989 kbps       7.1 / 96 kHz / 6349 kbps / 16-bit (AC3 Core: 5.1 / 48 kHz / 640 kbps)
Dolby Digital Audio             German          224 kbps        2.0 / 48 kHz / 224 kbps
Dolby Digital Audio             Spanish         224 kbps        2.0 / 48 kHz / 224 kbps
Dolby Digital Audio             French          224 kbps        2.0 / 48 kHz / 224 kbps
Dolby Digital Audio             Italian         192 kbps        2.0 / 48 kHz / 192 kbps
Dolby Digital Audio             Japanese        224 kbps        2.0 / 48 kHz / 224 kbps

SUBTITLES:

Codec                           Language        Bitrate         Description     
-----                           --------        -------         -----------     
Presentation Graphics           English         52.297 kbps                     
Presentation Graphics           English         55.575 kbps                     
Presentation Graphics           Danish          46.034 kbps                     
Presentation Graphics           German          48.824 kbps                     
Presentation Graphics           Spanish         44.475 kbps                     
Presentation Graphics           French          39.367 kbps                     
Presentation Graphics           Italian         40.189 kbps                     
Presentation Graphics           Japanese        29.906 kbps                     
Presentation Graphics           Korean          29.867 kbps                     
Presentation Graphics           Dutch           47.04 kbps                     
Presentation Graphics           Norwegian       44.486 kbps                     
Presentation Graphics           Finnish         36.545 kbps                     
Presentation Graphics           Swedish         45.169 kbps                     
Presentation Graphics           Japanese        9.607 kbps   

Video
ID : 1
ID in the original source medium : 4113 (0x1011)
Format : HEVC
Format/Info : High Efficiency Video Coding
Format profile : Main [email protected]@High
HDR format : SMPTE ST 2086, HDR10 compatible
Codec ID : V_MPEGH/ISO/HEVC
Duration : 2 h 53 min
Bit rate : 56.7 Mb/s
Width : 3 840 pixels
Height : 2 160 pixels
Display aspect ratio : 16:9
Frame rate mode : Constant
Frame rate : 23.976 (24000/1001) FPS
Color space : YUV
Chroma subsampling : 4:2:0 (Type 2)
Bit depth : 10 bits
Bits/(Pixel*Frame) : 0.285
Stream size : 68.6 GiB (78%)
Language : English
Default : No
Forced : No
Color range : Limited
Color primaries : BT.2020
Transfer characteristics : PQ
Matrix coefficients : BT.2020 non-constant
Mastering display color primaries : Display P3
Mastering display luminance : min: 0.0050 cd/m2, max: 4000 cd/m2
Maximum Content Light Level : 1000 cd/m2
Maximum Frame-Average Light Level : 99 cd/m2
Original source medium : Blu-ray

Audio #1
ID : 2
ID in the original source medium : 4352 (0x1100)
Format : MLP FBA
Format/Info : Meridian Lossless Packing FBA
Commercial name : Dolby TrueHD
Codec ID : A_TRUEHD
Duration : 2 h 53 min
Bit rate mode : Variable
Bit rate : 6 349 kb/s
Maximum bit rate : 9 516 kb/s
Channel(s) : 8 channels
Channel layout : L R C LFE Ls Rs Lb Rb
Sampling rate : 96.0 kHz
Frame rate : 1 200.000 FPS (80 SPF)
Bit depth : 24 bits
Compression mode : Lossless
Stream size : 7.67 GiB (9%)
Title : TrueHD 7.1
Language : English
Default : Yes
Forced : No
Original source medium : Blu-ray

Audio #2
ID : 3
Format : DTS XLL
Format/Info : Digital Theater Systems
Commercial name : DTS-HD Master Audio
Codec ID : A_DTS
Duration : 2 h 53 min
Bit rate mode : Variable
Bit rate : 8 036 kb/s
Channel(s) : 8 channels
Channel layout : C L R LFE Lb Rb Lss Rss
Sampling rate : 96.0 kHz
Frame rate : 187.500 FPS (512 SPF)
Bit depth : 24 bits
Compression mode : Lossless
Stream size : 9.71 GiB (11%)
Title : DTS-HD MA 7.1
Language : English
Default : No
Forced : No

Audio #3
ID : 4
ID in the original source medium : 4352 (0x1100)
Format : AC-3
Format/Info : Audio Coding 3
Commercial name : Dolby Digital
Codec ID : A_AC3
Duration : 2 h 53 min
Bit rate mode : Constant
Bit rate : 640 kb/s
Channel(s) : 6 channels
Channel layout : L R C LFE Ls Rs
Sampling rate : 48.0 kHz
Frame rate : 31.250 FPS (1536 SPF)
Compression mode : Lossy
Stream size : 792 MiB (1%)
Title : DD 5.1
Language : English
Service kind : Complete Main
Default : No
Forced : No
Original source medium : Blu-ray

Audio #4
ID : 5
ID in the original source medium : 4353 (0x1101)
Format : AC-3
Format/Info : Audio Coding 3
Commercial name : Dolby Digital
Codec ID : A_AC3
Duration : 2 h 53 min
Bit rate mode : Constant
Bit rate : 224 kb/s
Channel(s) : 2 channels
Channel layout : L R
Sampling rate : 48.0 kHz
Frame rate : 31.250 FPS (1536 SPF)
Compression mode : Lossy
Stream size : 277 MiB (0%)
Title : DD 2.0
Language : German
Service kind : Complete Main
Default : No
Forced : No
Original source medium : Blu-ray

Audio #5
ID : 6
ID in the original source medium : 4354 (0x1102)
Format : AC-3
Format/Info : Audio Coding 3
Commercial name : Dolby Digital
Codec ID : A_AC3
Duration : 2 h 53 min
Bit rate mode : Constant
Bit rate : 224 kb/s
Channel(s) : 2 channels
Channel layout : L R
Sampling rate : 48.0 kHz
Frame rate : 31.250 FPS (1536 SPF)
Compression mode : Lossy
Stream size : 277 MiB (0%)
Title : DD 2.0
Language : Spanish
Service kind : Complete Main
Default : No
Forced : No
Original source medium : Blu-ray

Audio #6
ID : 7
ID in the original source medium : 4355 (0x1103)
Format : AC-3
Format/Info : Audio Coding 3
Commercial name : Dolby Digital
Codec ID : A_AC3
Duration : 2 h 53 min
Bit rate mode : Constant
Bit rate : 224 kb/s
Channel(s) : 2 channels
Channel layout : L R
Sampling rate : 48.0 kHz
Frame rate : 31.250 FPS (1536 SPF)
Compression mode : Lossy
Stream size : 277 MiB (0%)
Title : DD 2.0
Language : French
Service kind : Complete Main
Default : No
Forced : No
Original source medium : Blu-ray

Audio #7
ID : 8
ID in the original source medium : 4356 (0x1104)
Format : AC-3
Format/Info : Audio Coding 3
Commercial name : Dolby Digital
Codec ID : A_AC3
Duration : 2 h 53 min
Bit rate mode : Constant
Bit rate : 192 kb/s
Channel(s) : 2 channels
Channel layout : L R
Sampling rate : 48.0 kHz
Frame rate : 31.250 FPS (1536 SPF)
Compression mode : Lossy
Stream size : 238 MiB (0%)
Title : DD 2.0
Language : Italian
Service kind : Complete Main
Default : No
Forced : No
Original source medium : Blu-ray

Audio #8
ID : 9
ID in the original source medium : 4357 (0x1105)
Format : AC-3
Format/Info : Audio Coding 3
Commercial name : Dolby Digital
Codec ID : A_AC3
Duration : 2 h 53 min
Bit rate mode : Constant
Bit rate : 224 kb/s
Channel(s) : 2 channels
Channel layout : L R
Sampling rate : 48.0 kHz
Frame rate : 31.250 FPS (1536 SPF)
Compression mode : Lossy
Stream size : 277 MiB (0%)
Title : DD 2.0
Language : Japanese
Service kind : Complete Main
Default : No
Forced : No
Original source medium : Blu-ray

Text #1
ID : 10
Format : UTF-8
Codec ID : S_TEXT/UTF8
Codec ID/Info : UTF-8 Plain Text
Duration : 2 h 47 min
Bit rate : 77 b/s
Count of elements : 2550
Stream size : 94.9 KiB (0%)
Title : English-SRT
Language : English
Default : Yes
Forced : No

Text #2
ID : 11
ID in the original source medium : 4768 (0x12A0)
Format : PGS
Muxing mode : zlib
Codec ID : S_HDMV/PGS
Codec ID/Info : Picture based subtitle format used on BDs/HD-DVDs
Duration : 2 h 47 min
Bit rate : 54.0 kb/s
Count of elements : 5142
Stream size : 64.8 MiB (0%)
Title : English-PGS
Language : English
Default : No
Forced : No
Original source medium : Blu-ray

Text #3
ID : 12
ID in the original source medium : 4769 (0x12A1)
Format : PGS
Muxing mode : zlib
Codec ID : S_HDMV/PGS
Codec ID/Info : Picture based subtitle format used on BDs/HD-DVDs
Duration : 2 h 47 min
Bit rate : 57.3 kb/s
Count of elements : 5398
Stream size : 68.8 MiB (0%)
Title : English-SDH-PGS
Language : English
Default : No
Forced : No
Original source medium : Blu-ray

Text #4
ID : 13
ID in the original source medium : 4770 (0x12A2)
Format : PGS
Muxing mode : zlib
Codec ID : S_HDMV/PGS
Codec ID/Info : Picture based subtitle format used on BDs/HD-DVDs
Duration : 2 h 49 min
Bit rate : 47.0 kb/s
Count of elements : 5102
Stream size : 57.0 MiB (0%)
Title : Danish-PGS
Language : Danish
Default : No
Forced : No
Original source medium : Blu-ray

Text #5
ID : 14
ID in the original source medium : 4771 (0x12A3)
Format : PGS
Muxing mode : zlib
Codec ID : S_HDMV/PGS
Codec ID/Info : Picture based subtitle format used on BDs/HD-DVDs
Duration : 2 h 48 min
Bit rate : 50.3 kb/s
Count of elements : 4674
Stream size : 60.5 MiB (0%)
Title : German-PGS
Language : German
Default : No
Forced : No
Original source medium : Blu-ray

Text #6
ID : 15
ID in the original source medium : 4772 (0x12A4)
Format : PGS
Muxing mode : zlib
Codec ID : S_HDMV/PGS
Codec ID/Info : Picture based subtitle format used on BDs/HD-DVDs
Duration : 2 h 48 min
Bit rate : 45.8 kb/s
Count of elements : 4652
Stream size : 55.1 MiB (0%)
Title : Spanish-PGS
Language : Spanish
Default : No
Forced : No
Original source medium : Blu-ray

Text #7
ID : 16
ID in the original source medium : 4772 (0x12A4)
Format : PGS
Muxing mode : zlib
Codec ID : S_HDMV/PGS
Codec ID/Info : Picture based subtitle format used on BDs/HD-DVDs
Duration : 1 h 11 min
Bit rate : 43 b/s
Count of elements : 4
Stream size : 22.6 KiB (0%)
Title : Spanish-FORCED-PGS
Language : Spanish
Default : No
Forced : No
Original source medium : Blu-ray

Text #8
ID : 17
ID in the original source medium : 4773 (0x12A5)
Format : PGS
Muxing mode : zlib
Codec ID : S_HDMV/PGS
Codec ID/Info : Picture based subtitle format used on BDs/HD-DVDs
Duration : 2 h 48 min
Bit rate : 40.5 kb/s
Count of elements : 4358
Stream size : 48.7 MiB (0%)
Title : French-PGS
Language : French
Default : No
Forced : No
Original source medium : Blu-ray

Text #9
ID : 18
ID in the original source medium : 4773 (0x12A5)
Format : PGS
Muxing mode : zlib
Codec ID : S_HDMV/PGS
Codec ID/Info : Picture based subtitle format used on BDs/HD-DVDs
Duration : 1 h 11 min
Bit rate : 23 b/s
Count of elements : 4
Stream size : 12.3 KiB (0%)
Title : French-FORCED-PGS
Language : French
Default : No
Forced : No
Original source medium : Blu-ray

Text #10
ID : 19
ID in the original source medium : 4774 (0x12A6)
Format : PGS
Muxing mode : zlib
Codec ID : S_HDMV/PGS
Codec ID/Info : Picture based subtitle format used on BDs/HD-DVDs
Duration : 2 h 48 min
Bit rate : 41.4 kb/s
Count of elements : 4426
Stream size : 49.8 MiB (0%)
Title : Italian-PGS
Language : Italian
Default : No
Forced : No
Original source medium : Blu-ray

Text #11
ID : 20
ID in the original source medium : 4774 (0x12A6)
Format : PGS
Muxing mode : zlib
Codec ID : S_HDMV/PGS
Codec ID/Info : Picture based subtitle format used on BDs/HD-DVDs
Duration : 1 h 11 min
Bit rate : 26 b/s
Count of elements : 4
Stream size : 13.9 KiB (0%)
Title : Italian-FORCED-PGS
Language : Italian
Default : No
Forced : No
Original source medium : Blu-ray

Text #12
ID : 21
ID in the original source medium : 4775 (0x12A7)
Format : PGS
Muxing mode : zlib
Codec ID : S_HDMV/PGS
Codec ID/Info : Picture based subtitle format used on BDs/HD-DVDs
Duration : 2 h 50 min
Bit rate : 30.3 kb/s
Count of elements : 4070
Stream size : 37.0 MiB (0%)
Title : Japanese-PGS
Language : Japanese
Default : No
Forced : No
Original source medium : Blu-ray

Text #13
ID : 22
ID in the original source medium : 4776 (0x12A8)
Format : PGS
Muxing mode : zlib
Codec ID : S_HDMV/PGS
Codec ID/Info : Picture based subtitle format used on BDs/HD-DVDs
Duration : 2 h 51 min
Bit rate : 30.1 kb/s
Count of elements : 4908
Stream size : 37.0 MiB (0%)
Title : Korean-PGS
Language : Korean
Default : No
Forced : No
Original source medium : Blu-ray

Text #14
ID : 23
ID in the original source medium : 4777 (0x12A9)
Format : PGS
Muxing mode : zlib
Codec ID : S_HDMV/PGS
Codec ID/Info : Picture based subtitle format used on BDs/HD-DVDs
Duration : 2 h 48 min
Bit rate : 48.4 kb/s
Count of elements : 4816
Stream size : 58.3 MiB (0%)
Title : Dutch-PGS
Language : Dutch
Default : No
Forced : No
Original source medium : Blu-ray

Text #15
ID : 24
ID in the original source medium : 4778 (0x12AA)
Format : PGS
Muxing mode : zlib
Codec ID : S_HDMV/PGS
Codec ID/Info : Picture based subtitle format used on BDs/HD-DVDs
Duration : 2 h 48 min
Bit rate : 45.8 kb/s
Count of elements : 4658
Stream size : 55.1 MiB (0%)
Title : Norwegian-PGS
Language : Norwegian
Default : No
Forced : No
Original source medium : Blu-ray

Text #16
ID : 25
ID in the original source medium : 4779 (0x12AB)
Format : PGS
Muxing mode : zlib
Codec ID : S_HDMV/PGS
Codec ID/Info : Picture based subtitle format used on BDs/HD-DVDs
Duration : 2 h 47 min
Bit rate : 37.7 kb/s
Count of elements : 3734
Stream size : 45.3 MiB (0%)
Title : Finnish-PGS
Language : Finnish
Default : No
Forced : No
Original source medium : Blu-ray

Text #17
ID : 26
ID in the original source medium : 4780 (0x12AC)
Format : PGS
Muxing mode : zlib
Codec ID : S_HDMV/PGS
Codec ID/Info : Picture based subtitle format used on BDs/HD-DVDs
Duration : 2 h 48 min
Bit rate : 46.5 kb/s
Count of elements : 4870
Stream size : 55.9 MiB (0%)
Title : Swedish-PGS
Language : Swedish
Default : No
Forced : No
Original source medium : Blu-ray

Text #18
ID : 27
ID in the original source medium : 4781 (0x12AD)
Format : PGS
Muxing mode : zlib
Codec ID : S_HDMV/PGS
Codec ID/Info : Picture based subtitle format used on BDs/HD-DVDs
Duration : 2 h 50 min
Bit rate : 9 737 b/s
Count of elements : 1164
Stream size : 11.9 MiB (0%)
Title : Japanese-FORCED-PGS
Language : Japanese
Default : No
Forced : No
Original source medium : Blu-ray

Menu
00:00:00.000 : Chapter 01
00:03:31.169 : Chapter 02
00:05:47.180 : Chapter 03
00:09:52.508 : Chapter 04
00:12:51.270 : Chapter 05
00:14:29.827 : Chapter 06
00:19:06.979 : Chapter 07
00:24:10.657 : Chapter 08
00:26:11.069 : Chapter 09
00:32:38.915 : Chapter 10
00:37:31.165 : Chapter 11
00:39:46.759 : Chapter 12
00:44:47.810 : Chapter 13
00:50:42.664 : Chapter 14
00:55:14.686 : Chapter 15
00:59:34.696 : Chapter 16
01:03:56.999 : Chapter 17
01:06:18.391 : Chapter 18
01:11:13.143 : Chapter 19
01:12:46.945 : Chapter 20
01:16:59.573 : Chapter 21
01:21:04.860 : Chapter 22
01:24:35.278 : Chapter 23
01:26:16.004 : Chapter 24
01:30:28.423 : Chapter 25
01:33:54.211 : Chapter 26
01:37:46.277 : Chapter 27
01:40:10.796 : Chapter 28
01:41:21.366 : Chapter 29
01:41:55.901 : Chapter 30
01:43:09.725 : Chapter 31
01:44:50.701 : Chapter 32
01:46:52.364 : Chapter 33
01:49:00.283 : Chapter 34
01:52:56.686 : Chapter 35
01:59:03.261 : Chapter 36
02:06:15.150 : Chapter 37
02:07:45.366 : Chapter 38
02:09:04.820 : Chapter 39
02:12:12.007 : Chapter 40
02:15:22.030 : Chapter 41
02:19:03.209 : Chapter 42
02:25:06.823 : Chapter 43
02:27:19.038 : Chapter 44
02:32:11.664 : Chapter 45
02:34:53.993 : Chapter 46
02:39:04.368 : Chapter 47
02:43:56.243 : Chapter 48
02:48:34.479 : Chapter 49
02:51:45.295 : Chapter 50

本帖子中包含更多资源

您需要 登录 才可以下载或查看,没有帐号?立即注册

x
回复

使用道具 举报

0

主题

753

帖子

3730

积分

论坛元老

Rank: 8Rank: 8

积分
3730
发表于 2021-6-1 13:50:26 | 显示全部楼层
谢楼主分享!
回复

使用道具 举报

0

主题

1284

帖子

2171

积分

金牌会员

Rank: 6Rank: 6

积分
2171
发表于 2021-6-1 23:34:54 | 显示全部楼层
感谢楼主分享
回复

使用道具 举报

0

主题

316

帖子

1453

积分

金牌会员

Rank: 6Rank: 6

积分
1453
发表于 2021-6-4 15:45:13 | 显示全部楼层
感谢楼主分享
回复

使用道具 举报

0

主题

14

帖子

63

积分

注册会员

Rank: 2

积分
63
发表于 5 天前 | 显示全部楼层
赫本永远的女神,等我权限在多多就来看你
回复

使用道具 举报

您需要登录后才可以回帖 登录 | 立即注册

本版积分规则

QQ|Archiver|手机版|小黑屋|原盘天堂 好多盘 点击这里给我发消息

GMT+8, 2021-6-13 10:20 , Processed in 0.060096 second(s), 24 queries .

Powered by Discuz! X3.4

Copyright © 2001-2020, Tencent Cloud.

快速回复 返回顶部 返回列表