请选择 进入手机版 | 继续访问电脑版
本站Q群713428235【盘盘多】已满,请新会员加原盘天堂新官方QQ群709708625【好多盘】,验证信息填写您在论坛的会员名,不填会员名的无法入群哈,进群后修改您的群名片名字为您在论坛的会员名,请务必修改,否则群成员多了不知道您是哪个会员。

原盘天堂

 找回密码
 立即注册
京东商城当当华为商城名牌时尚折扣网,一个新型的网上购物平台,我们每周为您精选3~4个国际知名品牌,商品折扣低至2折限时限量售卖,商品囊括时装、护肤品、箱包、皮具、配饰、香水等等,琳琅满目。亿格瑞A10硬盘播放器 苏宁易购
查看: 52|回复: 3

4k蓝光原盘bdmv 骗中骗 英语原版 the.sting.1973.2160p.bluray.hevc.dts-hd.ma.5.1[91.69 GB]

[复制链接]

6023

主题

6690

帖子

133万

积分

管理员

Rank: 18Rank: 18Rank: 18Rank: 18Rank: 18

积分
1332455
发表于 2021-6-1 08:36:45 | 显示全部楼层 |阅读模式








骗中骗 The Sting (1973)

◎译  名 骗中骗/刺激(台)/老千计状元才(港)
◎片  名 The Sting
◎年  代 1973
◎产  地 美国
◎类  别 剧情/喜剧/犯罪
◎语  言 英语
◎上映日期 1973-12-25
◎IMDb链接  https://www.imdb.com/title/tt0070735/
◎豆瓣评分 8.7/10 from 44595 users
◎豆瓣链接 https://douban.com/subject/1292269/
◎片  长 129分钟
◎导  演 乔治·罗伊·希尔 George Roy Hill
◎编  剧 大卫·S·瓦德 David S. Ward
◎主  演 保罗·纽曼 Paul Newman
       罗伯特·雷德福 Robert Redford
       罗伯特·肖 Robert Shaw
       查尔斯·德恩 Charles Durning
       雷·沃尔斯顿 Ray Walston
       艾琳·布伦南 Eileen Brennan
       海尔德·高德 Harold Gould
       约翰·赫夫南 John Heffernan
       达纳·艾卡 Dana Elcar
       杰克·基欧 Jack Kehoe
       米特拉阿利斯 Dimitra Arliss
       Robert Earl Jones
       James Sloyan
       莎莉·柯克兰德 Sally Kirkland
       埃文·朗 Avon Long
       阿奇·约翰逊 Arch Johnson
       埃德·巴基 Ed Bakey
       布拉德·苏利文 Brad Sullivan
       John Quade
       Larry D. Mann
       Leonard Barr
       Paulene Myers
       杰克·科林斯 Jack Collins
       Tom Spratley
       Kenneth O'Brien
       Ta-Tanisha
       William 'Billy' Benedict
       Robert Brubaker
       Peter Paul Eastman
       凯瑟琳·弗里曼 Kathleen Freeman
       Susan French
       Sig Frohlich
       Ralph Gambina
       George Holmes
       Sid Kane
       迈克·拉里 Mike Lally
       Alexander Lockwood
       Chuck Morrell
       拜伦·莫罗 Byron Morrow
       Jessica Rains
       珀尔·希尔 Pearl Shear
       Arthur Tovey

◎标  签 犯罪 | 美国 | 经典 | 喜剧 | 剧情 | 美国电影 | 1973 | PaulNewman

◎简  介

  
  卢克领导着一个诈骗集团在芝加哥附近的约里埃特行骗。这天,手下人向他交了一大笔刚刚骗了的钱。不久,卢克就遭到了谋杀。原来,这笔钱是芝加哥的黑社会头目朗尼根(罗伯特•肖 Robert Shaw 饰)刚刚收回的赌款,正是这笔钱令卢克引火烧身。
  
  胡克(罗伯特•雷德福 Robert Redford 饰)是卢克的一个手下,卢克平日待他如亲生儿子一般,生前就想把他介绍到芝加哥的好友骗术大师冈多夫(保罗•纽曼 Paul Newman 饰)处学艺。胡克发誓要给卢克报仇,于是前往芝加哥寻找冈多夫。胡克顺利找到了冈多夫,听闻这次的对头是朗尼根,冈多夫马上摩拳擦掌。于是,一个天衣无缝的行骗计划开始了!
  

◎获奖情况

  第46届奥斯卡金像奖  (1974)
  最佳影片 朱莉娅·菲利普斯 / 迈克尔·菲利普斯 / 托尼·比尔
  最佳导演 乔治·罗伊·希尔
  最佳男主角(提名) 罗伯特·雷德福
  最佳原创剧本 大卫·S·瓦德
  最佳摄影(提名) 罗伯特·瑟蒂斯
  最佳剪辑 威廉·雷诺兹
  最佳音响(提名) 罗纳德·皮尔斯 / 罗伯特·R·伯特兰德
  最佳艺术指导 詹姆斯·W·佩恩 / 亨利·巴姆斯泰德
  最佳服装设计 伊迪丝·海德
  BestMusic,ScoringOriginalSongScoreand/orAdaptation 马文·哈姆利奇


DISC INFO:

Disc Title:     The.Sting.1973.COMPLETE.UHD.BLURAY-GUHZER
Disc Size:      98,452,784,900 bytes
Protection:     AACS2
Extras:         Ultra HD, BD-Java
BDInfo:         0.7.5.9 (compatible layout created by DVDFab 12.0.2.9)

PLAYLIST REPORT:

Name:                   00800.MPLS  
Length:                 2:09:04.319 (h:m:s.ms)
Size:                   84,059,271,168 bytes
Total Bitrate:          86.83 Mbps

VIDEO:

Codec                   Bitrate             Description     
-----                   -------             -----------     
MPEG-H HEVC Video       74189 kbps          2160p / 23.976 fps / 16:9 / Main 10 @ Level 5.1 @ High / 4:2:0 / 10 bits / 1000nits / HDR10 / BT.2020

AUDIO:

Codec                           Language        Bitrate         Description     
-----                           --------        -------         -----------     
DTS-HD Master Audio             English         2995 kbps       5.1 / 48 kHz / 2995 kbps / 24-bit (DTS Core: 5.1 / 48 kHz / 1509 kbps / 24-bit)
DTS Audio                       French          768 kbps        2.0 / 48 kHz / 768 kbps / 24-bit
DTS Audio                       Spanish         768 kbps        5.1 / 48 kHz / 768 kbps / 24-bit
DTS Audio                       Portuguese      448 kbps        2.0 / 48 kHz / 448 kbps / 24-bit
DTS Audio                       Russian         448 kbps        2.0 / 48 kHz / 448 kbps / 24-bit
DTS Audio                       Czech           768 kbps        5.1 / 48 kHz / 768 kbps / 24-bit
DTS Audio                       Hungarian       768 kbps        5.1 / 48 kHz / 768 kbps / 24-bit
DTS Audio                       Polish          768 kbps        5.1 / 48 kHz / 768 kbps / 24-bit

SUBTITLES:

Codec                           Language        Bitrate         Description     
-----                           --------        -------         -----------     
Presentation Graphics           English         39.881 kbps                     
Presentation Graphics           French          29.724 kbps                     
Presentation Graphics           Spanish         33.411 kbps                     
Presentation Graphics           Dutch           30.319 kbps                     
Presentation Graphics           Danish          31.997 kbps                     
Presentation Graphics           Finnish         29.315 kbps                     
Presentation Graphics           Norwegian       30.161 kbps                     
Presentation Graphics           Swedish         26.187 kbps                     
Presentation Graphics           Portuguese      30.076 kbps                     
Presentation Graphics           Russian         32.902 kbps                     
Presentation Graphics           Czech           27.199 kbps                     
Presentation Graphics           Hungarian       30.275 kbps                     
Presentation Graphics           Polish          30.182 kbps                     
Presentation Graphics           Hindi           29.054 kbps                     
Presentation Graphics           Greek           30.736 kbps                     
Presentation Graphics           French          0.074 kbps                     
Presentation Graphics           Spanish         0.103 kbps                     
Presentation Graphics           Portuguese      0.023 kbps                     
Presentation Graphics           Czech           0.061 kbps                     
Presentation Graphics           Hungarian       0.011 kbps  

Video
ID : 1
ID in the original source medium : 4113 (0x1011)
Format : HEVC
Format/Info : High Efficiency Video Coding
Format profile : Main [email protected]@High
HDR format : SMPTE ST 2086, HDR10 compatible
Codec ID : V_MPEGH/ISO/HEVC
Duration : 2 h 9 min
Bit rate : 74.2 Mb/s
Width : 3 840 pixels
Height : 2 160 pixels
Display aspect ratio : 16:9
Frame rate mode : Constant
Frame rate : 23.976 (24000/1001) FPS
Color space : YUV
Chroma subsampling : 4:2:0 (Type 2)
Bit depth : 10 bits
Bits/(Pixel*Frame) : 0.373
Stream size : 66.9 GiB (88%)
Writing library : ATEME Titan File 3.9.6 (4.9.6.2)
Language : English
Default : No
Forced : No
Color range : Limited
Color primaries : BT.2020
Transfer characteristics : PQ
Matrix coefficients : BT.2020 non-constant
Mastering display color primaries : Display P3
Mastering display luminance : min: 0.0050 cd/m2, max: 1000 cd/m2
Maximum Content Light Level : 818 cd/m2
Maximum Frame-Average Light Level : 69 cd/m2
Original source medium : Blu-ray

Audio #1
ID : 2
ID in the original source medium : 4352 (0x1100)
Format : DTS XLL
Format/Info : Digital Theater Systems
Commercial name : DTS-HD Master Audio
Codec ID : A_DTS
Duration : 2 h 9 min
Bit rate mode : Variable
Bit rate : 2 995 kb/s
Channel(s) : 6 channels
Channel layout : C L R Ls Rs LFE
Sampling rate : 48.0 kHz
Frame rate : 93.750 FPS (512 SPF)
Bit depth : 24 bits
Compression mode : Lossless
Stream size : 2.70 GiB (4%)
Title : DTS-HD MA 5.1
Language : English
Default : Yes
Forced : No
Original source medium : Blu-ray

Audio #2
ID : 3
Format : AC-3
Format/Info : Audio Coding 3
Commercial name : Dolby Digital
Codec ID : A_AC3
Duration : 2 h 9 min
Bit rate mode : Constant
Bit rate : 640 kb/s
Channel(s) : 6 channels
Channel layout : L R C LFE Ls Rs
Sampling rate : 48.0 kHz
Frame rate : 31.250 FPS (1536 SPF)
Compression mode : Lossy
Stream size : 591 MiB (1%)
Title : DD 5.1
Language : English
Service kind : Complete Main
Default : No
Forced : No

Audio #3
ID : 4
ID in the original source medium : 4352 (0x1100)
Format : DTS
Format/Info : Digital Theater Systems
Codec ID : A_DTS
Duration : 2 h 9 min
Bit rate mode : Constant
Bit rate : 1 509 kb/s
Channel(s) : 6 channels
Channel layout : C L R Ls Rs LFE
Sampling rate : 48.0 kHz
Frame rate : 93.750 FPS (512 SPF)
Bit depth : 24 bits
Compression mode : Lossy
Stream size : 1.36 GiB (2%)
Title : DTS 5.1
Language : English
Default : No
Forced : No
Original source medium : Blu-ray

Audio #4
ID : 5
ID in the original source medium : 4353 (0x1101)
Format : DTS
Format/Info : Digital Theater Systems
Codec ID : A_DTS
Duration : 2 h 9 min
Bit rate mode : Constant
Bit rate : 768 kb/s
Channel(s) : 2 channels
Channel layout : L R
Sampling rate : 48.0 kHz
Frame rate : 93.750 FPS (512 SPF)
Bit depth : 24 bits
Compression mode : Lossy
Stream size : 709 MiB (1%)
Title : DD 2.0
Language : French
Default : No
Forced : No
Original source medium : Blu-ray

Audio #5
ID : 6
ID in the original source medium : 4354 (0x1102)
Format : DTS
Format/Info : Digital Theater Systems
Codec ID : A_DTS
Duration : 2 h 9 min
Bit rate mode : Constant
Bit rate : 768 kb/s
Channel(s) : 6 channels
Channel layout : C L R Ls Rs LFE
Sampling rate : 48.0 kHz
Frame rate : 93.750 FPS (512 SPF)
Bit depth : 24 bits
Compression mode : Lossy
Stream size : 709 MiB (1%)
Title : DTS 5.1
Language : Spanish
Default : No
Forced : No
Original source medium : Blu-ray

Audio #6
ID : 7
ID in the original source medium : 4355 (0x1103)
Format : DTS
Format/Info : Digital Theater Systems
Codec ID : A_DTS
Duration : 2 h 9 min
Bit rate mode : Constant
Bit rate : 447 kb/s
Channel(s) : 2 channels
Channel layout : L R
Sampling rate : 48.0 kHz
Frame rate : 93.750 FPS (512 SPF)
Bit depth : 24 bits
Compression mode : Lossy
Stream size : 413 MiB (1%)
Title : DD 2.0
Language : Portuguese
Default : No
Forced : No
Original source medium : Blu-ray

Audio #7
ID : 8
ID in the original source medium : 4356 (0x1104)
Format : DTS
Format/Info : Digital Theater Systems
Codec ID : A_DTS
Duration : 2 h 9 min
Bit rate mode : Constant
Bit rate : 447 kb/s
Channel(s) : 2 channels
Channel layout : L R
Sampling rate : 48.0 kHz
Frame rate : 93.750 FPS (512 SPF)
Bit depth : 24 bits
Compression mode : Lossy
Stream size : 413 MiB (1%)
Title : DD 2.0
Language : Russian
Default : No
Forced : No
Original source medium : Blu-ray

Audio #8
ID : 9
ID in the original source medium : 4357 (0x1105)
Format : DTS
Format/Info : Digital Theater Systems
Codec ID : A_DTS
Duration : 2 h 9 min
Bit rate mode : Constant
Bit rate : 768 kb/s
Channel(s) : 6 channels
Channel layout : C L R Ls Rs LFE
Sampling rate : 48.0 kHz
Frame rate : 93.750 FPS (512 SPF)
Bit depth : 24 bits
Compression mode : Lossy
Stream size : 709 MiB (1%)
Title : DTS 5.1
Language : Czech
Default : No
Forced : No
Original source medium : Blu-ray

Audio #9
ID : 10
ID in the original source medium : 4358 (0x1106)
Format : DTS
Format/Info : Digital Theater Systems
Codec ID : A_DTS
Duration : 2 h 9 min
Bit rate mode : Constant
Bit rate : 768 kb/s
Channel(s) : 6 channels
Channel layout : C L R Ls Rs LFE
Sampling rate : 48.0 kHz
Frame rate : 93.750 FPS (512 SPF)
Bit depth : 24 bits
Compression mode : Lossy
Stream size : 709 MiB (1%)
Title : DTS 5.1
Language : Hungarian
Default : No
Forced : No
Original source medium : Blu-ray

Audio #10
ID : 11
ID in the original source medium : 4359 (0x1107)
Format : DTS
Format/Info : Digital Theater Systems
Codec ID : A_DTS
Duration : 2 h 9 min
Bit rate mode : Constant
Bit rate : 768 kb/s
Channel(s) : 6 channels
Channel layout : C L R Ls Rs LFE
Sampling rate : 48.0 kHz
Frame rate : 93.750 FPS (512 SPF)
Bit depth : 24 bits
Compression mode : Lossy
Stream size : 709 MiB (1%)
Title : DTS 5.1
Language : Polish
Default : No
Forced : No
Original source medium : Blu-ray

Text #1
ID : 12
Format : UTF-8
Codec ID : S_TEXT/UTF8
Codec ID/Info : UTF-8 Plain Text
Duration : 2 h 3 min
Bit rate : 58 b/s
Count of elements : 1724
Stream size : 53.4 KiB (0%)
Title : English-SRT
Language : English
Default : Yes
Forced : No

Text #2
ID : 13
ID in the original source medium : 4768 (0x12A0)
Format : PGS
Muxing mode : zlib
Codec ID : S_HDMV/PGS
Codec ID/Info : Picture based subtitle format used on BDs/HD-DVDs
Duration : 2 h 6 min
Bit rate : 40.7 kb/s
Count of elements : 3804
Stream size : 36.8 MiB (0%)
Title : English-PGS
Language : English
Default : No
Forced : No
Original source medium : Blu-ray

Text #3
ID : 14
ID in the original source medium : 4769 (0x12A1)
Format : PGS
Muxing mode : zlib
Codec ID : S_HDMV/PGS
Codec ID/Info : Picture based subtitle format used on BDs/HD-DVDs
Duration : 2 h 5 min
Bit rate : 30.5 kb/s
Count of elements : 2524
Stream size : 27.4 MiB (0%)
Title : French-PGS
Language : French
Default : No
Forced : No
Original source medium : Blu-ray

Text #4
ID : 15
ID in the original source medium : 4770 (0x12A2)
Format : PGS
Muxing mode : zlib
Codec ID : S_HDMV/PGS
Codec ID/Info : Picture based subtitle format used on BDs/HD-DVDs
Duration : 2 h 5 min
Bit rate : 34.2 kb/s
Count of elements : 2622
Stream size : 30.8 MiB (0%)
Title : Spanish-PGS
Language : Spanish
Default : No
Forced : No
Original source medium : Blu-ray

Text #5
ID : 16
ID in the original source medium : 4771 (0x12A3)
Format : PGS
Muxing mode : zlib
Codec ID : S_HDMV/PGS
Codec ID/Info : Picture based subtitle format used on BDs/HD-DVDs
Duration : 2 h 5 min
Bit rate : 31.1 kb/s
Count of elements : 2490
Stream size : 28.0 MiB (0%)
Title : Dutch-PGS
Language : Dutch
Default : No
Forced : No
Original source medium : Blu-ray

Text #6
ID : 17
ID in the original source medium : 4772 (0x12A4)
Format : PGS
Muxing mode : zlib
Codec ID : S_HDMV/PGS
Codec ID/Info : Picture based subtitle format used on BDs/HD-DVDs
Duration : 2 h 5 min
Bit rate : 32.8 kb/s
Count of elements : 2520
Stream size : 29.5 MiB (0%)
Title : Danish-PGS
Language : Danish
Default : No
Forced : No
Original source medium : Blu-ray

Text #7
ID : 18
ID in the original source medium : 4773 (0x12A5)
Format : PGS
Muxing mode : zlib
Codec ID : S_HDMV/PGS
Codec ID/Info : Picture based subtitle format used on BDs/HD-DVDs
Duration : 2 h 5 min
Bit rate : 30.0 kb/s
Count of elements : 2438
Stream size : 27.1 MiB (0%)
Title : Finnish-PGS
Language : Finnish
Default : No
Forced : No
Original source medium : Blu-ray

Text #8
ID : 19
ID in the original source medium : 4774 (0x12A6)
Format : PGS
Muxing mode : zlib
Codec ID : S_HDMV/PGS
Codec ID/Info : Picture based subtitle format used on BDs/HD-DVDs
Duration : 2 h 5 min
Bit rate : 30.9 kb/s
Count of elements : 2496
Stream size : 27.8 MiB (0%)
Title : Norwegian-PGS
Language : Norwegian
Default : No
Forced : No
Original source medium : Blu-ray

Text #9
ID : 20
ID in the original source medium : 4775 (0x12A7)
Format : PGS
Muxing mode : zlib
Codec ID : S_HDMV/PGS
Codec ID/Info : Picture based subtitle format used on BDs/HD-DVDs
Duration : 2 h 5 min
Bit rate : 26.8 kb/s
Count of elements : 2422
Stream size : 24.2 MiB (0%)
Title : Swedish-PGS
Language : Swedish
Default : No
Forced : No
Original source medium : Blu-ray

Text #10
ID : 21
ID in the original source medium : 4776 (0x12A8)
Format : PGS
Muxing mode : zlib
Codec ID : S_HDMV/PGS
Codec ID/Info : Picture based subtitle format used on BDs/HD-DVDs
Duration : 2 h 5 min
Bit rate : 30.8 kb/s
Count of elements : 2780
Stream size : 27.8 MiB (0%)
Title : Portuguese-PGS
Language : Portuguese
Default : No
Forced : No
Original source medium : Blu-ray

Text #11
ID : 22
ID in the original source medium : 4777 (0x12A9)
Format : PGS
Muxing mode : zlib
Codec ID : S_HDMV/PGS
Codec ID/Info : Picture based subtitle format used on BDs/HD-DVDs
Duration : 2 h 5 min
Bit rate : 33.7 kb/s
Count of elements : 2624
Stream size : 30.4 MiB (0%)
Title : Russian-PGS
Language : Russian
Default : No
Forced : No
Original source medium : Blu-ray

Text #12
ID : 23
ID in the original source medium : 4778 (0x12AA)
Format : PGS
Muxing mode : zlib
Codec ID : S_HDMV/PGS
Codec ID/Info : Picture based subtitle format used on BDs/HD-DVDs
Duration : 2 h 5 min
Bit rate : 27.9 kb/s
Count of elements : 2524
Stream size : 25.1 MiB (0%)
Title : Czech-PGS
Language : Czech
Default : No
Forced : No
Original source medium : Blu-ray

Text #13
ID : 24
ID in the original source medium : 4779 (0x12AB)
Format : PGS
Muxing mode : zlib
Codec ID : S_HDMV/PGS
Codec ID/Info : Picture based subtitle format used on BDs/HD-DVDs
Duration : 2 h 6 min
Bit rate : 31.0 kb/s
Count of elements : 2442
Stream size : 27.9 MiB (0%)
Title : Hungarian-PGS
Language : Hungarian
Default : No
Forced : No
Original source medium : Blu-ray

Text #14
ID : 25
ID in the original source medium : 4780 (0x12AC)
Format : PGS
Muxing mode : zlib
Codec ID : S_HDMV/PGS
Codec ID/Info : Picture based subtitle format used on BDs/HD-DVDs
Duration : 2 h 5 min
Bit rate : 30.9 kb/s
Count of elements : 2520
Stream size : 27.9 MiB (0%)
Title : Polish-PGS
Language : Polish
Default : No
Forced : No
Original source medium : Blu-ray

Text #15
ID : 26
ID in the original source medium : 4781 (0x12AD)
Format : PGS
Muxing mode : zlib
Codec ID : S_HDMV/PGS
Codec ID/Info : Picture based subtitle format used on BDs/HD-DVDs
Duration : 2 h 8 min
Bit rate : 29.2 kb/s
Count of elements : 2900
Stream size : 26.8 MiB (0%)
Title : Hindi-PGS
Language : Hindi
Default : No
Forced : No
Original source medium : Blu-ray

Text #16
ID : 27
ID in the original source medium : 4782 (0x12AE)
Format : PGS
Muxing mode : zlib
Codec ID : S_HDMV/PGS
Codec ID/Info : Picture based subtitle format used on BDs/HD-DVDs
Duration : 2 h 6 min
Bit rate : 31.5 kb/s
Count of elements : 2444
Stream size : 28.4 MiB (0%)
Title : Greek-PGS
Language : Greek
Default : No
Forced : No
Original source medium : Blu-ray

Text #17
ID : 28
ID in the original source medium : 4783 (0x12AF)
Format : PGS
Muxing mode : zlib
Codec ID : S_HDMV/PGS
Codec ID/Info : Picture based subtitle format used on BDs/HD-DVDs
Duration : 1 h 51 min
Bit rate : 85 b/s
Count of elements : 14
Stream size : 70.3 KiB (0%)
Title : French-FORCED-PGS
Language : French
Default : No
Forced : No
Original source medium : Blu-ray

Text #18
ID : 29
ID in the original source medium : 4784 (0x12B0)
Format : PGS
Muxing mode : zlib
Codec ID : S_HDMV/PGS
Codec ID/Info : Picture based subtitle format used on BDs/HD-DVDs
Duration : 1 h 30 min
Bit rate : 148 b/s
Count of elements : 10
Stream size : 97.7 KiB (0%)
Title : Spanish-FORCED-PGS
Language : Spanish
Default : No
Forced : No
Original source medium : Blu-ray

Text #19
ID : 30
ID in the original source medium : 4785 (0x12B1)
Format : PGS
Muxing mode : zlib
Codec ID : S_HDMV/PGS
Codec ID/Info : Picture based subtitle format used on BDs/HD-DVDs
Duration : 1 min 4 s
Bit rate : 2 718 b/s
Count of elements : 4
Stream size : 21.5 KiB (0%)
Title : Portuguese-FORCED-PGS
Language : Portuguese
Default : No
Forced : No
Original source medium : Blu-ray

Text #20
ID : 31
ID in the original source medium : 4786 (0x12B2)
Format : PGS
Muxing mode : zlib
Codec ID : S_HDMV/PGS
Codec ID/Info : Picture based subtitle format used on BDs/HD-DVDs
Duration : 1 h 51 min
Bit rate : 70 b/s
Count of elements : 16
Stream size : 58.0 KiB (0%)
Title : Czech-FORCED-PGS
Language : Czech
Default : No
Forced : No
Original source medium : Blu-ray

Text #21
ID : 32
ID in the original source medium : 4787 (0x12B3)
Format : PGS
Muxing mode : zlib
Codec ID : S_HDMV/PGS
Codec ID/Info : Picture based subtitle format used on BDs/HD-DVDs
Duration : 3 s 525 ms
Bit rate : 25.1 kb/s
Count of elements : 2
Stream size : 10.8 KiB (0%)
Title : Hungarian-FORCED-PGS
Language : Hungarian
Default : No
Forced : No
Original source medium : Blu-ray

Menu
00:00:00.000 : Chapter 01
00:12:11.772 : Chapter 02
00:24:10.073 : Chapter 03
00:29:01.322 : Chapter 04
00:35:03.059 : Chapter 05
00:40:32.138 : Chapter 06
00:46:34.917 : Chapter 07
01:01:01.115 : Chapter 08
01:07:44.560 : Chapter 09
01:18:00.300 : Chapter 10
01:23:44.477 : Chapter 11
01:30:37.723 : Chapter 12
01:33:32.565 : Chapter 13
01:41:33.587 : Chapter 14
01:52:21.526 : Chapter 15
01:59:13.396 : Chapter 16

本帖子中包含更多资源

您需要 登录 才可以下载或查看,没有帐号?立即注册

x
回复

使用道具 举报

0

主题

753

帖子

3730

积分

论坛元老

Rank: 8Rank: 8

积分
3730
发表于 2021-6-1 14:05:40 | 显示全部楼层
多谢楼主的分享;
回复

使用道具 举报

0

主题

1284

帖子

2171

积分

金牌会员

Rank: 6Rank: 6

积分
2171
发表于 2021-6-1 23:41:29 | 显示全部楼层
感谢楼主分享
回复

使用道具 举报

0

主题

753

帖子

3730

积分

论坛元老

Rank: 8Rank: 8

积分
3730
发表于 2021-6-2 10:12:12 | 显示全部楼层
支持一下分享好资源
回复

使用道具 举报

您需要登录后才可以回帖 登录 | 立即注册

本版积分规则

QQ|Archiver|手机版|小黑屋|原盘天堂 好多盘 点击这里给我发消息

GMT+8, 2021-6-13 10:11 , Processed in 0.079472 second(s), 24 queries .

Powered by Discuz! X3.4

Copyright © 2001-2020, Tencent Cloud.

快速回复 返回顶部 返回列表