请选择 进入手机版 | 继续访问电脑版
本站Q群713428235【盘盘多】已满,请新会员加原盘天堂新官方QQ群709708625【好多盘】,验证信息填写您在论坛的会员名,不填会员名的无法入群哈,进群后修改您的群名片名字为您在论坛的会员名,请务必修改,否则群成员多了不知道您是哪个会员。

原盘天堂

 找回密码
 立即注册
京东商城当当华为商城名牌时尚折扣网,一个新型的网上购物平台,我们每周为您精选3~4个国际知名品牌,商品折扣低至2折限时限量售卖,商品囊括时装、护肤品、箱包、皮具、配饰、香水等等,琳琅满目。亿格瑞A10硬盘播放器 苏宁易购
查看: 158|回复: 9

2d蓝光原盘bdmv 野山百里香 英语原版 wild.mountain.thyme.2020.1080p.bluray.avc.dts-hd.ma.5.1[31.08 GB]

[复制链接]

6023

主题

6690

帖子

133万

积分

管理员

Rank: 18Rank: 18Rank: 18Rank: 18Rank: 18

积分
1332455
发表于 2021-5-19 21:39:06 | 显示全部楼层 |阅读模式








野山百里香 Wild Mountain Thyme (2020)

◎译  名 野山百里香/真爱邻距离(台)
◎片  名 Wild Mountain Thyme
◎年  代 2020
◎产  地 爱尔兰/英国
◎类  别 剧情/爱情
◎语  言 英语
◎上映日期 2020-12-11(美国)
◎IMDb链接  https://www.imdb.com/title/tt6842770/
◎豆瓣评分 5.7/10 from 196 users
◎豆瓣链接 https://douban.com/subject/33433370/
◎片  长 102分钟
◎导  演 约翰·帕特里克·尚利 John Patrick Shanley
◎编  剧 约翰·帕特里克·尚利 John Patrick Shanley
◎主  演 艾米莉·布朗特 Emily Blunt
       詹米·多南 Jamie Dornan
       克里斯托弗·沃肯 Christopher Walken
       乔恩·哈姆 Jon Hamm
       乔恩·坦尼 Jon Tenney
       迪尔巴拉·莫洛伊 Dearbhla Molloy
       莉迪亚·麦吉尼斯 Lydia McGuinness

◎标  签 爱情 | 2020 | 艾米莉·布朗特 | 剧情 | 詹米·多南 | 浪漫 | 英国 | EmilyBlunt

◎简  介

  
  布朗特代替了此前宣布加盟的荷丽黛·格兰杰,她和多南将饰演一对顽固的爱尔兰恋人,两人是青梅竹马,男方每日埋头在农场劳作,忍受着父亲(沃肯)的轻视,但他最不能忍受的,是父亲威胁要把家族农场传给他的美国表哥(哈姆)。女方小时候曾被男方出言不逊,但多年来他们之间一直有火花。她的妈妈(莫洛伊)誓要在一切太晚之前,把两家团结起来。
  
DISC INFO:

Disc Title:     Wild.Mountain.Thyme.2020.1080p.BluRay.AVC.DTS-HD.MA.5.1-FGT
Disc Size:      33,376,281,676 bytes
Protection:     AACS
BDInfo:         0.7.5.9 (compatible layout created by DVDFab 12.0.2.9)

PLAYLIST REPORT:

Name:                   00000.MPLS  
Length:                 1:42:11.166 (h:m:s.ms)
Size:                   29,787,746,304 bytes
Total Bitrate:          38.87 Mbps

VIDEO:

Codec                   Bitrate             Description     
-----                   -------             -----------     
MPEG-4 AVC Video        31201 kbps          1080p / 24 fps / 16:9 / High Profile 4.1

AUDIO:

Codec                           Language        Bitrate         Description     
-----                           --------        -------         -----------     
DTS-HD Master Audio             English         3948 kbps       5.1 / 48 kHz / 3948 kbps / 24-bit (DTS Core: 5.1 / 48 kHz / 1509 kbps / 24-bit)
LPCM Audio                      English         1536 kbps       2.0 / 48 kHz / 1536 kbps / 16-bit

SUBTITLES:

Codec                           Language        Bitrate         Description     
-----                           --------        -------         -----------     
Presentation Graphics           English         31.42 kbps

Video
ID : 1
ID in the original source medium : 4113 (0x1011)
Format : AVC
Format/Info : Advanced Video Codec
Format profile : [email protected]
Format settings : CABAC / 4 Ref Frames
Format settings, CABAC : Yes
Format settings, Reference frames : 4 frames
Codec ID : V_MPEG4/ISO/AVC
Duration : 1 h 42 min
Bit rate mode : Variable
Bit rate : 31.2 Mb/s
Maximum bit rate : 35.0 Mb/s
Width : 1 920 pixels
Height : 1 080 pixels
Display aspect ratio : 16:9
Frame rate mode : Constant
Frame rate : 24.000 FPS
Color space : YUV
Chroma subsampling : 4:2:0
Bit depth : 8 bits
Scan type : Progressive
Bits/(Pixel*Frame) : 0.627
Stream size : 22.3 GiB (85%)
Language : English
Default : No
Forced : No
Color range : Limited
Color primaries : BT.709
Transfer characteristics : BT.709
Matrix coefficients : BT.709
Original source medium : Blu-ray

Audio #1
ID : 2
ID in the original source medium : 4352 (0x1100)
Format : DTS XLL
Format/Info : Digital Theater Systems
Commercial name : DTS-HD Master Audio
Codec ID : A_DTS
Duration : 1 h 42 min
Bit rate mode : Variable
Bit rate : 3 948 kb/s
Channel(s) : 6 channels
Channel layout : C L R Ls Rs LFE
Sampling rate : 48.0 kHz
Frame rate : 93.750 FPS (512 SPF)
Bit depth : 24 bits
Compression mode : Lossless
Stream size : 2.82 GiB (11%)
Title : DTS-HD MA 5.1
Language : English
Default : Yes
Forced : No
Original source medium : Blu-ray

Audio #2
ID : 3
ID in the original source medium : 4353 (0x1101)
Format : PCM
Format settings : Little / Signed
Codec ID : A_PCM/INT/LIT
Duration : 1 h 42 min
Bit rate mode : Constant
Bit rate : 1 536 kb/s
Channel(s) : 2 channels
Sampling rate : 48.0 kHz
Frame rate : 30.000 FPS (1600 SPF)
Bit depth : 16 bits
Stream size : 1.10 GiB (4%)
Title : LPCM 2.0
Language : English
Default : No
Forced : No
Original source medium : Blu-ray

Text #1
ID : 4
Format : UTF-8
Codec ID : S_TEXT/UTF8
Codec ID/Info : UTF-8 Plain Text
Duration : 1 h 35 min
Bit rate : 60 b/s
Count of elements : 1819
Stream size : 42.1 KiB (0%)
Title : English-SRT
Language : English
Default : Yes
Forced : No

Text #2
ID : 5
ID in the original source medium : 4608 (0x1200)
Format : PGS
Muxing mode : zlib
Codec ID : S_HDMV/PGS
Codec ID/Info : Picture based subtitle format used on BDs/HD-DVDs
Duration : 1 h 40 min
Bit rate : 32.1 kb/s
Count of elements : 2648
Stream size : 23.0 MiB (0%)
Title : English-PGS
Language : English
Default : No
Forced : No
Original source medium : Blu-ray

Menu
00:00:00.000 : Chapter 01
00:12:13.333 : Chapter 02
00:19:51.458 : Chapter 03
00:30:12.958 : Chapter 04
00:39:56.041 : Chapter 05
00:48:53.083 : Chapter 06
00:59:22.041 : Chapter 07
01:09:33.916 : Chapter 08
01:19:52.791 : Chapter 09
01:30:27.416 : Chapter 10
01:34:12.750 : Chapter 11

本帖子中包含更多资源

您需要 登录 才可以下载或查看,没有帐号?立即注册

x
回复

使用道具 举报

0

主题

753

帖子

3730

积分

论坛元老

Rank: 8Rank: 8

积分
3730
发表于 2021-5-20 11:43:27 | 显示全部楼层
多谢楼主分享!
回复

使用道具 举报

0

主题

835

帖子

3239

积分

论坛元老

Rank: 8Rank: 8

积分
3239
发表于 2021-5-20 13:50:30 | 显示全部楼层
谢谢楼主分享
回复

使用道具 举报

0

主题

1178

帖子

8764

积分

VIP永久

Rank: 12Rank: 12Rank: 12

积分
8764
QQ
发表于 2021-5-22 14:04:28 | 显示全部楼层
感谢楼主分享!!!
回复

使用道具 举报

0

主题

32

帖子

52

积分

注册会员

Rank: 2

积分
52
发表于 2021-5-23 23:37:23 | 显示全部楼层
很喜欢,谢谢!
回复

使用道具 举报

0

主题

385

帖子

2143

积分

金牌会员

Rank: 6Rank: 6

积分
2143
发表于 2021-5-24 19:42:19 | 显示全部楼层
感谢楼主分享
回复

使用道具 举报

0

主题

1284

帖子

2171

积分

金牌会员

Rank: 6Rank: 6

积分
2171
发表于 2021-5-25 18:21:57 | 显示全部楼层

谢谢楼主分享!
回复

使用道具 举报

0

主题

753

帖子

3730

积分

论坛元老

Rank: 8Rank: 8

积分
3730
发表于 2021-5-27 09:01:39 | 显示全部楼层
感恩无私的分享
回复

使用道具 举报

0

主题

1225

帖子

5181

积分

论坛元老

Rank: 8Rank: 8

积分
5181
发表于 2021-5-28 21:07:19 | 显示全部楼层
感谢楼主分享高清影片
回复

使用道具 举报

0

主题

7

帖子

63

积分

注册会员

Rank: 2

积分
63
发表于 2021-5-31 15:49:30 | 显示全部楼层
感谢楼主分享!
回复

使用道具 举报

您需要登录后才可以回帖 登录 | 立即注册

本版积分规则

QQ|Archiver|手机版|小黑屋|原盘天堂 好多盘 点击这里给我发消息

GMT+8, 2021-6-13 10:56 , Processed in 0.065841 second(s), 26 queries .

Powered by Discuz! X3.4

Copyright © 2001-2020, Tencent Cloud.

快速回复 返回顶部 返回列表