请选择 进入手机版 | 继续访问电脑版
本站Q群713428235【盘盘多】已满,请新会员加原盘天堂新官方QQ群709708625【好多盘】,验证信息填写您在论坛的会员名,不填会员名的无法入群哈,进群后修改您的群名片名字为您在论坛的会员名,请务必修改,否则群成员多了不知道您是哪个会员。

原盘天堂

 找回密码
 立即注册
京东商城当当华为商城名牌时尚折扣网,一个新型的网上购物平台,我们每周为您精选3~4个国际知名品牌,商品折扣低至2折限时限量售卖,商品囊括时装、护肤品、箱包、皮具、配饰、香水等等,琳琅满目。亿格瑞A10硬盘播放器 苏宁易购
查看: 116|回复: 5

2d蓝光原盘bdmv 外星罪孽 英语原版 cosmic.sin.2021.1080p.us.bluray.avc.dts-hd.ma.5.1[25.95 GB]

[复制链接]

6023

主题

6690

帖子

133万

积分

管理员

Rank: 18Rank: 18Rank: 18Rank: 18Rank: 18

积分
1332455
发表于 2021-5-19 09:48:46 | 显示全部楼层 |阅读模式








外星罪孽 Cosmic Sin (2021)

◎译  名 外星罪孽/宇宙罪孽/终极异噬界(台)
◎片  名 Cosmic Sin
◎年  代 2021
◎产  地 美国
◎类  别 动作/科幻/冒险
◎语  言 英语
◎上映日期 2021-03-01(英国网络)/2021-03-12(美国网络)
◎IMDb链接  https://www.imdb.com/title/tt11762434/
◎豆瓣评分 3.2/10 from 671 users
◎豆瓣链接 https://douban.com/subject/34967032/
◎片  长 88分钟
◎导  演 爱德华·德雷克 Edward Drake
◎编  剧 爱德华·德雷克 Edward Drake / 科里·拉奇 Corey Large
◎主  演 弗兰克·格里罗 Frank Grillo
       布鲁斯·威利斯 Bruce Willis
       布兰登·托马斯·李 Brandon Thomas Lee
       科里·拉奇 Corey Large
       C.J. Perry
       佩瑞·里维斯 Perrey Reeves
       洛奇林·莫罗 Lochlyn Munro
       科斯塔斯·曼迪勒 Costas Mandylor
       艾娃·德·多米尼奇 Eva De Dominici
       阿黛莱德·凯恩 Adelaide Kane
       特雷弗·格雷茨基 Trevor Gretzky
       约翰尼·梅辛纳 Johnny Messner
       卢克·威尔逊 Luke Wilson

◎标  签 科幻 | 布鲁斯·威利斯 | 2021 | 美国 | 动作 | 美国电影 | 冒险 | 电影

◎简  介

  
  布鲁斯·威利斯将主演科幻题材影片[外星罪孽](Cosmic Sin,暂译)。科里·拉奇、Edward Drake联合执导并共同操刀剧本。该片讲述具有感染并控制人类能力的外星物种入侵地球,一群战士与科学家必须挺身而出,为了人类而战斗。
  
DISC INFO:

Disc Title:     Cosmic.Sin.2021.1080p.US.BluRay.AVC.DTS-HD.MA.5.1-FGT
Disc Size:      27,861,375,527 bytes
Protection:     AACS
Extras:         BD-Java
BDInfo:         0.7.5.9 (compatible layout created by DVDFab 12.0.2.9)

PLAYLIST REPORT:

Name:                   00001.MPLS  
Length:                 1:28:26.884 (h:m:s.ms)
Size:                   27,588,059,136 bytes
Total Bitrate:          41.59 Mbps

VIDEO:

Codec                   Bitrate             Description     
-----                   -------             -----------     
MPEG-4 AVC Video        35580 kbps          1080p / 23.976 fps / 16:9 / High Profile 4.1

AUDIO:

Codec                           Language        Bitrate         Description     
-----                           --------        -------         -----------     
DTS-HD Master Audio             English         3851 kbps       5.1 / 48 kHz / 3851 kbps / 24-bit (DTS Core: 5.1 / 48 kHz / 1509 kbps / 24-bit)

SUBTITLES:

Codec                           Language        Bitrate         Description     
-----                           --------        -------         -----------     
Presentation Graphics           English         27.83 kbps                     
Presentation Graphics           English         33.719 kbps                     
Presentation Graphics           Spanish         26.777 kbps                     
Presentation Graphics           French          29.155 kbps     

Video
ID : 1
ID in the original source medium : 4113 (0x1011)
Format : AVC
Format/Info : Advanced Video Codec
Format profile : [email protected]L4.1
Format settings : CABAC / 2 Ref Frames
Format settings, CABAC : Yes
Format settings, Reference frames : 2 frames
Codec ID : V_MPEG4/ISO/AVC
Duration : 1 h 28 min
Bit rate mode : Variable
Bit rate : 35.6 Mb/s
Width : 1 920 pixels
Height : 1 080 pixels
Display aspect ratio : 16:9
Frame rate mode : Constant
Frame rate : 23.976 (24000/1001) FPS
Color space : YUV
Chroma subsampling : 4:2:0
Bit depth : 8 bits
Scan type : Progressive
Bits/(Pixel*Frame) : 0.716
Stream size : 22.0 GiB (90%)
Language : English
Default : No
Forced : No
Original source medium : Blu-ray

Audio
ID : 2
ID in the original source medium : 4352 (0x1100)
Format : DTS XLL
Format/Info : Digital Theater Systems
Commercial name : DTS-HD Master Audio
Codec ID : A_DTS
Duration : 1 h 28 min
Bit rate mode : Variable
Bit rate : 3 851 kb/s
Channel(s) : 6 channels
Channel layout : C L R Ls Rs LFE
Sampling rate : 48.0 kHz
Frame rate : 93.750 FPS (512 SPF)
Bit depth : 24 bits
Compression mode : Lossless
Stream size : 2.38 GiB (10%)
Title : DTS-HD MA 5.1
Language : English
Default : Yes
Forced : No
Original source medium : Blu-ray

Text #1
ID : 3
Format : UTF-8
Codec ID : S_TEXT/UTF8
Codec ID/Info : UTF-8 Plain Text
Duration : 1 h 22 min
Bit rate : 42 b/s
Count of elements : 782
Stream size : 25.6 KiB (0%)
Title : English-SRT
Language : English
Default : Yes
Forced : No

Text #2
ID : 4
ID in the original source medium : 4608 (0x1200)
Format : PGS
Muxing mode : zlib
Codec ID : S_HDMV/PGS
Codec ID/Info : Picture based subtitle format used on BDs/HD-DVDs
Duration : 1 h 22 min
Bit rate : 29.9 kb/s
Count of elements : 1582
Stream size : 17.6 MiB (0%)
Title : English-PGS
Language : English
Default : No
Forced : No
Original source medium : Blu-ray

Text #3
ID : 5
ID in the original source medium : 4609 (0x1201)
Format : PGS
Muxing mode : zlib
Codec ID : S_HDMV/PGS
Codec ID/Info : Picture based subtitle format used on BDs/HD-DVDs
Duration : 1 h 27 min
Bit rate : 34.2 kb/s
Count of elements : 1990
Stream size : 21.3 MiB (0%)
Title : English-SDH-PGS
Language : English
Default : No
Forced : No
Original source medium : Blu-ray

Text #4
ID : 6
ID in the original source medium : 4610 (0x1202)
Format : PGS
Muxing mode : zlib
Codec ID : S_HDMV/PGS
Codec ID/Info : Picture based subtitle format used on BDs/HD-DVDs
Duration : 1 h 27 min
Bit rate : 27.0 kb/s
Count of elements : 1572
Stream size : 16.9 MiB (0%)
Title : Spanish-PGS
Language : Spanish
Default : No
Forced : No
Original source medium : Blu-ray

Text #5
ID : 7
ID in the original source medium : 4611 (0x1203)
Format : PGS
Muxing mode : zlib
Codec ID : S_HDMV/PGS
Codec ID/Info : Picture based subtitle format used on BDs/HD-DVDs
Duration : 1 h 27 min
Bit rate : 29.4 kb/s
Count of elements : 1618
Stream size : 18.4 MiB (0%)
Title : French-PGS
Language : French
Default : No
Forced : No
Original source medium : Blu-ray

Menu
00:00:00.000 : Chapter 01
00:05:47.430 : Chapter 02
00:13:53.207 : Chapter 03
00:18:16.887 : Chapter 04
00:26:36.845 : Chapter 05
00:30:37.210 : Chapter 06
00:37:30.581 : Chapter 07
00:46:56.563 : Chapter 08
00:53:47.140 : Chapter 09
01:01:08.998 : Chapter 10
01:06:53.551 : Chapter 11
01:12:41.732 : Chapter 12
01:16:19.908 : Chapter 13
01:21:39.352 : Chapter 14
01:25:29.541 : Chapter 15

本帖子中包含更多资源

您需要 登录 才可以下载或查看,没有帐号?立即注册

x
回复

使用道具 举报

0

主题

753

帖子

3730

积分

论坛元老

Rank: 8Rank: 8

积分
3730
发表于 2021-5-19 10:56:46 | 显示全部楼层

谢楼主分享
回复

使用道具 举报

0

主题

33

帖子

53

积分

注册会员

Rank: 2

积分
53
发表于 2021-5-19 11:42:52 | 显示全部楼层
感谢分享
回复

使用道具 举报

0

主题

165

帖子

597

积分

高级会员

Rank: 4

积分
597
发表于 2021-5-21 11:45:35 | 显示全部楼层
感谢分享!
回复

使用道具 举报

0

主题

438

帖子

3442

积分

论坛元老

Rank: 8Rank: 8

积分
3442
发表于 2021-5-22 09:45:55 | 显示全部楼层
感谢楼主分享好看的电影
回复

使用道具 举报

0

主题

1178

帖子

8764

积分

VIP永久

Rank: 12Rank: 12Rank: 12

积分
8764
QQ
发表于 2021-5-22 14:07:57 | 显示全部楼层
感谢楼主分享!!!
回复

使用道具 举报

您需要登录后才可以回帖 登录 | 立即注册

本版积分规则

QQ|Archiver|手机版|小黑屋|原盘天堂 好多盘 点击这里给我发消息

GMT+8, 2021-6-13 11:05 , Processed in 0.060811 second(s), 26 queries .

Powered by Discuz! X3.4

Copyright © 2001-2020, Tencent Cloud.

快速回复 返回顶部 返回列表