请选择 进入手机版 | 继续访问电脑版
本站Q群713428235【盘盘多】已满,请新会员加原盘天堂新官方QQ群709708625【好多盘】,验证信息填写您在论坛的会员名,不填会员名的无法入群哈,进群后修改您的群名片名字为您在论坛的会员名,请务必修改,否则群成员多了不知道您是哪个会员。

原盘天堂

 找回密码
 立即注册
京东商城当当华为商城名牌时尚折扣网,一个新型的网上购物平台,我们每周为您精选3~4个国际知名品牌,商品折扣低至2折限时限量售卖,商品囊括时装、护肤品、箱包、皮具、配饰、香水等等,琳琅满目。亿格瑞A10硬盘播放器 苏宁易购
查看: 148|回复: 10

4k蓝光原盘bdmv 核子航母遇险记 英语原版 the.final.countdown.1980.2160p.bluray.hevc.truehd.7.1.atmos[90.9 GB]

[复制链接]

6023

主题

6690

帖子

133万

积分

管理员

Rank: 18Rank: 18Rank: 18Rank: 18Rank: 18

积分
1332455
发表于 2021-5-17 23:04:47 | 显示全部楼层 |阅读模式








核子航母遇险记 The Final Countdown (1980)

◎译  名 核子航母遇险记/碧血长天
◎片  名 The Final Countdown
◎年  代 1980
◎产  地 美国
◎类  别 剧情/科幻/战争/冒险
◎语  言 英语/日语/俄语
◎上映日期 1980-07-09
◎IMDb链接  https://www.imdb.com/title/tt0080736/
◎豆瓣评分 6.3/10 from 1228 users
◎豆瓣链接 https://douban.com/subject/1295917/
◎片  长 103 分钟
◎导  演 唐·泰勒 Don Taylor
◎主  演 柯克·道格拉斯 Kirk Douglas
       马丁·辛 Martin Sheen
       凯瑟琳·罗斯 Katharine Ross
       Victor Mohica
       朗·奥尼尔 Ron O'Neal
       詹姆斯·法伦蒂洛 James Farentino
       吴顺泰 Soon-Tek Oh

◎标  签 科幻 | 战争 | 美国 | 穿越 | 二战 | 美国电影 | 1980 | 时间隧道

◎简  介

  
  美国尼米兹号航空母舰在例行维修时,遭遇奇怪的风暴,突然与美国太平洋舰队失去联系。在遭遇日本“0”式侦察机和发现珍珠港泊满了二战前的战舰后,舰上官兵们才意识到,自己所在的航空母舰穿过时光隧道,回到了二次世界大战前夕的珍珠港,舰上官兵进一步发现正要对珍珠港发动攻击、启发战端的日本航空母舰舰群,要么凭借自己先进的战斗机和导弹对日本舰队抢先发动进攻,进而避免珍珠港惨遭浩劫,同时改变历史;要么远离珍珠港让历史顺其自然地发展。更令众人烦恼的是,他们救起的参议员在日本对珍珠港发动袭击前瞬间消失了。袭击迫在眉睫,他们不得不做出抉择……
  
DISC INFO:

Disc Title:     The.Final.Countdown.1980.2160p.BluRay.HEVC.TrueHD.7.1.Atmos-TASTED
Disc Size:      97,326,915,425 bytes
Protection:     AACS2
Extras:         Ultra HD, BD-Java
BDInfo:         0.7.5.9 (compatible layout created by DVDFab 12.0.2.9)

PLAYLIST REPORT:

Name:                   00000.MPLS  
Length:                 1:42:37.651 (h:m:s.ms)
Size:                   75,558,555,648 bytes
Total Bitrate:          98.17 Mbps

(*) Indicates included stream hidden by this playlist.

VIDEO:

Codec                   Bitrate             Description     
-----                   -------             -----------     
MPEG-H HEVC Video       76483 kbps          2160p / 23.976 fps / 16:9 / Main 10 @ Level 5.1 @ High / 4:2:0 / 10 bits / 1000nits / HDR10 / BT.2020
* MPEG-H HEVC Video     4927 kbps (6.05%)   1080p / 23.976 fps / 16:9 / Main 10 @ Level 5.1 @ High / 4:2:0 / 10 bits / 1000nits / Dolby Vision FEL / BT.2020

AUDIO:

Codec                           Language        Bitrate         Description     
-----                           --------        -------         -----------     
Dolby TrueHD/Atmos Audio        English         4928 kbps       7.1+11 objects / 48 kHz / 4288 kbps / 24-bit (AC3 Core: 5.1-EX / 48 kHz / 640 kbps)
DTS-HD Master Audio             English         2141 kbps       5.1 / 48 kHz / 2141 kbps / 16-bit (DTS Core: 5.1 / 48 kHz / 1509 kbps / 16-bit)
DTS-HD Master Audio             English         1716 kbps       2.0 / 48 kHz / 1716 kbps / 16-bit (DTS Core: 2.0 / 48 kHz / 1509 kbps / 16-bit)
DTS-HD Master Audio             French          1571 kbps       2.0 / 48 kHz / 1571 kbps / 16-bit (DTS Core: 2.0 / 48 kHz / 1509 kbps / 16-bit)
Dolby Digital Audio             English         192 kbps        2.0 / 48 kHz / 192 kbps

SUBTITLES:

Codec                           Language        Bitrate         Description     
-----                           --------        -------         -----------     
Presentation Graphics           English         38.161 kbps                     
Presentation Graphics           French          36.24 kbps                     
Presentation Graphics           Spanish         31.258 kbps   

Video
ID : 1
ID in the original source medium : 4113 (0x1011)
Format : HEVC
Format/Info : High Efficiency Video Coding
Format profile : Main [email protected]@High
HDR format : SMPTE ST 2086, HDR10 compatible
Codec ID : V_MPEGH/ISO/HEVC
Duration : 1 h 42 min
Bit rate : 76.5 Mb/s
Width : 3 840 pixels
Height : 2 160 pixels
Display aspect ratio : 16:9
Frame rate mode : Constant
Frame rate : 23.976 (24000/1001) FPS
Color space : YUV
Chroma subsampling : 4:2:0 (Type 2)
Bit depth : 10 bits
Bits/(Pixel*Frame) : 0.385
Stream size : 54.8 GiB (86%)
Language : English
Default : No
Forced : No
Color range : Limited
Color primaries : BT.2020
Transfer characteristics : PQ
Matrix coefficients : BT.2020 non-constant
Mastering display color primaries : BT.2020
Mastering display luminance : min: 0.0001 cd/m2, max: 1000 cd/m2
Maximum Content Light Level : 1000 cd/m2
Maximum Frame-Average Light Level : 536 cd/m2
Original source medium : Blu-ray

Audio #1
ID : 2
ID in the original source medium : 4352 (0x1100)
Format : MLP FBA 16-ch
Format/Info : Meridian Lossless Packing FBA with 16-channel presentation
Commercial name : Dolby TrueHD with Dolby Atmos
Codec ID : A_TRUEHD
Duration : 1 h 42 min
Bit rate mode : Variable
Bit rate : 4 288 kb/s
Maximum bit rate : 6 795 kb/s
Channel(s) : 8 channels
Channel layout : L R C LFE Ls Rs Lb Rb
Sampling rate : 48.0 kHz
Frame rate : 1 200.000 FPS (40 SPF)
Bit depth : 24 bits
Compression mode : Lossless
Stream size : 3.07 GiB (5%)
Title : TrueHD 7.1 Atmos
Language : English
Default : Yes
Forced : No
Original source medium : Blu-ray
Number of dynamic objects : 11
Bed channel count : 1 channel
Bed channel configuration : LFE

Audio #2
ID : 3
Format : DTS XLL
Format/Info : Digital Theater Systems
Commercial name : DTS-HD Master Audio
Codec ID : A_DTS
Duration : 1 h 42 min
Bit rate mode : Variable
Bit rate : 4 174 kb/s
Channel(s) : 8 channels
Channel layout : C L R LFE Lb Rb Lss Rss
Sampling rate : 48.0 kHz
Frame rate : 93.750 FPS (512 SPF)
Bit depth : 24 bits
Compression mode : Lossless
Stream size : 2.99 GiB (5%)
Title : DTS-HD MA 7.1
Language : English
Default : No
Forced : No

Audio #3
ID : 4
ID in the original source medium : 4352 (0x1100)
Format : AC-3
Format/Info : Audio Coding 3
Commercial name : Dolby Digital
Format settings : Dolby Surround EX
Codec ID : A_AC3
Duration : 1 h 42 min
Bit rate mode : Constant
Bit rate : 640 kb/s
Channel(s) : 6 channels
Channel layout : L R C LFE Ls Rs
Sampling rate : 48.0 kHz
Frame rate : 31.250 FPS (1536 SPF)
Compression mode : Lossy
Stream size : 470 MiB (1%)
Title : DD 5.1
Language : English
Service kind : Complete Main
Default : No
Forced : No
Original source medium : Blu-ray

Audio #4
ID : 5
ID in the original source medium : 4354 (0x1102)
Format : DTS XLL
Format/Info : Digital Theater Systems
Commercial name : DTS-HD Master Audio
Codec ID : A_DTS
Duration : 1 h 42 min
Bit rate mode : Variable
Bit rate : 1 716 kb/s
Channel(s) : 2 channels
Channel layout : L R
Sampling rate : 48.0 kHz
Frame rate : 93.750 FPS (512 SPF)
Bit depth : 16 bits
Compression mode : Lossless
Stream size : 1.23 GiB (2%)
Title : DTS-HD MA 2.0
Language : English
Default : No
Forced : No
Original source medium : Blu-ray

Audio #5
ID : 6
ID in the original source medium : 4355 (0x1103)
Format : DTS XLL
Format/Info : Digital Theater Systems
Commercial name : DTS-HD Master Audio
Codec ID : A_DTS
Duration : 1 h 42 min
Bit rate mode : Variable
Bit rate : 1 571 kb/s
Channel(s) : 2 channels
Channel layout : L R
Sampling rate : 48.0 kHz
Frame rate : 93.750 FPS (512 SPF)
Bit depth : 16 bits
Compression mode : Lossless
Stream size : 1.13 GiB (2%)
Title : DTS-HD MA 2.0
Language : French
Default : No
Forced : No
Original source medium : Blu-ray

Audio #6
ID : 7
ID in the original source medium : 4356 (0x1104)
Format : AC-3
Format/Info : Audio Coding 3
Commercial name : Dolby Digital
Codec ID : A_AC3
Duration : 1 h 42 min
Bit rate mode : Constant
Bit rate : 192 kb/s
Channel(s) : 2 channels
Channel layout : L R
Sampling rate : 48.0 kHz
Frame rate : 31.250 FPS (1536 SPF)
Compression mode : Lossy
Stream size : 141 MiB (0%)
Title : DD 2.0
Language : English
Service kind : Complete Main
Default : No
Forced : No
Original source medium : Blu-ray

Text #1
ID : 8
Format : UTF-8
Codec ID : S_TEXT/UTF8
Codec ID/Info : UTF-8 Plain Text
Duration : 1 h 38 min
Bit rate : 55 b/s
Count of elements : 1019
Stream size : 40.1 KiB (0%)
Title : English-SRT
Language : English
Default : Yes
Forced : No

Text #2
ID : 9
ID in the original source medium : 4768 (0x12A0)
Format : PGS
Muxing mode : zlib
Codec ID : S_HDMV/PGS
Codec ID/Info : Picture based subtitle format used on BDs/HD-DVDs
Duration : 1 h 39 min
Bit rate : 39.4 kb/s
Count of elements : 2178
Stream size : 28.0 MiB (0%)
Title : English-PGS
Language : English
Default : No
Forced : No
Original source medium : Blu-ray

Text #3
ID : 10
ID in the original source medium : 4769 (0x12A1)
Format : PGS
Muxing mode : zlib
Codec ID : S_HDMV/PGS
Codec ID/Info : Picture based subtitle format used on BDs/HD-DVDs
Duration : 1 h 38 min
Bit rate : 37.6 kb/s
Count of elements : 1954
Stream size : 26.6 MiB (0%)
Title : French-PGS
Language : French
Default : No
Forced : No
Original source medium : Blu-ray

Text #4
ID : 11
ID in the original source medium : 4770 (0x12A2)
Format : PGS
Muxing mode : zlib
Codec ID : S_HDMV/PGS
Codec ID/Info : Picture based subtitle format used on BDs/HD-DVDs
Duration : 1 h 38 min
Bit rate : 32.4 kb/s
Count of elements : 1952
Stream size : 22.9 MiB (0%)
Title : Spanish-PGS
Language : Spanish
Default : No
Forced : No
Original source medium : Blu-ray

Menu
00:00:00.000 : Chapter 01
00:06:57.125 : Chapter 02
00:10:52.109 : Chapter 03
00:15:12.119 : Chapter 04
00:19:50.814 : Chapter 05
00:23:25.737 : Chapter 06
00:30:14.604 : Chapter 07
00:36:14.088 : Chapter 08
00:42:36.303 : Chapter 09
00:47:14.790 : Chapter 10
00:51:47.771 : Chapter 11
00:56:46.903 : Chapter 12
01:04:07.426 : Chapter 13
01:12:58.707 : Chapter 14
01:17:36.985 : Chapter 15
01:22:06.087 : Chapter 16
01:24:40.784 : Chapter 17
01:27:42.882 : Chapter 18
01:34:05.681 : Chapter 19
01:39:51.610 : Chapter 20

本帖子中包含更多资源

您需要 登录 才可以下载或查看,没有帐号?立即注册

x
回复

使用道具 举报

0

主题

753

帖子

3730

积分

论坛元老

Rank: 8Rank: 8

积分
3730
发表于 2021-5-18 09:34:19 | 显示全部楼层
谢楼主分享
回复

使用道具 举报

0

主题

438

帖子

3442

积分

论坛元老

Rank: 8Rank: 8

积分
3442
发表于 2021-5-19 09:12:18 | 显示全部楼层
我看不错噢 谢谢楼主!
回复

使用道具 举报

0

主题

835

帖子

3239

积分

论坛元老

Rank: 8Rank: 8

积分
3239
发表于 2021-5-19 17:00:27 | 显示全部楼层
谢谢楼主的分享
回复

使用道具 举报

0

主题

835

帖子

3239

积分

论坛元老

Rank: 8Rank: 8

积分
3239
发表于 2021-5-20 13:49:10 | 显示全部楼层
谢谢楼主分享
回复

使用道具 举报

0

主题

12

帖子

42

积分

新手上路

Rank: 1

积分
42
发表于 2021-5-23 18:01:50 | 显示全部楼层
谢谢楼主
回复

使用道具 举报

0

主题

753

帖子

3730

积分

论坛元老

Rank: 8Rank: 8

积分
3730
发表于 2021-5-26 10:00:43 | 显示全部楼层
感谢楼主分享.
回复

使用道具 举报

0

主题

1282

帖子

2143

积分

金牌会员

Rank: 6Rank: 6

积分
2143
发表于 2021-6-1 23:49:12 | 显示全部楼层
感谢楼主分享
回复

使用道具 举报

0

主题

1

帖子

7

积分

新手上路

Rank: 1

积分
7
发表于 2021-6-2 23:03:01 | 显示全部楼层
谢楼主分享
回复

使用道具 举报

0

主题

8

帖子

60

积分

VIP月

Rank: 9Rank: 9Rank: 9

积分
60
发表于 6 天前 | 显示全部楼层
谢楼主分享
回复

使用道具 举报

您需要登录后才可以回帖 登录 | 立即注册

本版积分规则

QQ|Archiver|手机版|小黑屋|原盘天堂 好多盘 点击这里给我发消息

GMT+8, 2021-6-13 09:39 , Processed in 0.067488 second(s), 24 queries .

Powered by Discuz! X3.4

Copyright © 2001-2020, Tencent Cloud.

快速回复 返回顶部 返回列表