请选择 进入手机版 | 继续访问电脑版
本站Q群713428235【盘盘多】已满,请新会员加原盘天堂新官方QQ群709708625【好多盘】,验证信息填写您在论坛的会员名,不填会员名的无法入群哈,进群后修改您的群名片名字为您在论坛的会员名,请务必修改,否则群成员多了不知道您是哪个会员。

原盘天堂

 找回密码
 立即注册
京东商城当当华为商城名牌时尚折扣网,一个新型的网上购物平台,我们每周为您精选3~4个国际知名品牌,商品折扣低至2折限时限量售卖,商品囊括时装、护肤品、箱包、皮具、配饰、香水等等,琳琅满目。亿格瑞A10硬盘播放器 苏宁易购
查看: 55|回复: 4

2d蓝光原盘bdmv 760号犯人 英语原版 the.mauritanian.2021.1080p.bluray.avc.dts-hd.ma.5.1[39.35 GB]

[复制链接]

5958

主题

6605

帖子

132万

积分

管理员

Rank: 18Rank: 18Rank: 18Rank: 18Rank: 18

积分
1329763
发表于 2021-5-2 08:38:41 | 显示全部楼层 |阅读模式








760号犯人 The Mauritanian (2021)

◎译  名 760号犯人/760号囚犯/第760号囚犯/毛里塔尼亚人/失控的审判(台)/诬罪审判(港)/Guantanamo Diary/Prisoner 760
◎片  名 The Mauritanian
◎年  代 2021
◎产  地 英国/美国
◎类  别 剧情/惊悚
◎语  言 法语/阿拉伯语/英语
◎上映日期 2021-02-12(美国)/2021-06(中国大陆)
◎IMDb链接  https://www.imdb.com/title/tt4761112/
◎豆瓣评分 7.3/10 from 2886 users
◎豆瓣链接 https://douban.com/subject/26996524/
◎片  长 129分钟
◎导  演 凯文·麦克唐纳 Kevin Macdonald
◎编  剧 迈克尔·布朗纳 Michael Bronner  / 罗里·海恩斯 Rory Haines / 苏哈·诺什瓦尼 Sohrab Noshirvani / 穆罕默德·乌尔德·萨拉希 Mohamedou Ould Salahi / 拉里·西姆斯 Larry Siems
◎主  演 塔哈·拉希姆 Tahar Rahim
       朱迪·福斯特 Jodie Foster
       本尼迪克特·康伯巴奇 Benedict Cumberbatch
       扎克瑞·莱维 Zachary Levi
       谢琳·伍德蕾 Shailene Woodley
       沙莫·阿斯玛尼 Saamer Usmani
       克里·约翰逊 Corey Johnson
       马修·马什 Matthew Marsh
       大卫·芬恩 David Fynn
       安德烈·雅各布斯 Andre Jacobs
       兰利·柯克伍德 Langley Kirkwood
       史蒂夫·马克 Stevel Marc
       罗伯特·霍布斯 Robert Hobbs
       梅丽莎·海登 Melissa Haiden
       阿拉·萨菲 Alaa Safi
       埃文·亨斯特 Evan Hengst
       达伦-迈耶 Darron Meyer
       弗朗西斯·乔勒 Francis Chouler
       克莱顿·博伊德 Clayton Boyd
       南希·霍兰德 Nancy Hollander

◎标  签 美国 | 剧情 | 朱迪·福斯特 | 历史 | 本尼迪克特·康伯巴奇 | 2021 | 美国电影 | 谢琳·伍德蕾

◎简  介

  
  影片改编自Mohamedou Ould Slahi的回忆录《关塔那摩日记》,讲述Slahi(塔哈饰)被美国政府俘虏,在毫无指控与判决的情况下被关进了监狱,他失去了希望。Slahi寻得辩护律师南希·霍兰德(福斯特饰)与助手特里·邓肯(伍德蕾饰)的帮助,他们在面对无数障碍的情况下,一同追求正义。在富有争议的主张及斯图尔特·库什中尉(康伯巴奇饰)揭露的证据下,一个令人震惊的阴谋露出水面。
  

◎获奖情况

  第78届金球奖  (2021)
  电影类剧情片最佳男主角(提名) 塔哈·拉希姆
  电影类最佳女配角 朱迪·福斯特
  
  第74届英国电影学院奖  (2021)
  电影奖最佳影片(提名)
  电影奖最佳英国影片(提名) 凯文·麦克唐纳
  电影奖最佳男主角(提名) 塔哈·拉希姆
  电影奖最佳改编剧本(提名)
  电影奖最佳摄影(提名)
  
  第41届伦敦影评人协会奖  (2021)
  年度电影(提名)
  年度导演(提名) 凯文·麦克唐纳
  年度男主角(提名) 塔哈·拉希姆

DISC INFO:

Disc Title:     The.Mauritanian.2021.1080p.BluRay.AVC.DTS-HD.MA.5.1-NOGRP
Disc Size:      42,249,242,266 bytes
Protection:     AACS
Extras:         BD-Java
BDInfo:         0.7.5.9 (compatible layout created by DVDFab 12.0.2.6)

PLAYLIST REPORT:

Name:                   00800.MPLS  
Length:                 2:09:43.859 (h:m:s.ms)
Size:                   38,493,308,928 bytes
Total Bitrate:          39.56 Mbps

VIDEO:

Codec                   Bitrate             Description     
-----                   -------             -----------     
MPEG-4 AVC Video        33959 kbps          1080p / 23.976 fps / 16:9 / High Profile 4.1

AUDIO:

Codec                           Language        Bitrate         Description     
-----                           --------        -------         -----------     
DTS-HD Master Audio             English         3347 kbps       5.1 / 48 kHz / 3347 kbps / 24-bit (DTS Core: 5.1 / 48 kHz / 1509 kbps / 24-bit)
Dolby Digital Audio             English         192 kbps        2.0 / 48 kHz / 192 kbps / Dolby Surround

SUBTITLES:

Codec                           Language        Bitrate         Description     
-----                           --------        -------         -----------     
Presentation Graphics           English         40.351 kbps                     
Presentation Graphics           Spanish         34.372 kbps

Video
ID : 1
ID in the original source medium : 4113 (0x1011)
Format : AVC
Format/Info : Advanced Video Codec
Format profile : [email protected]
Format settings : CABAC / 4 Ref Frames
Format settings, CABAC : Yes
Format settings, Reference frames : 4 frames
Codec ID : V_MPEG4/ISO/AVC
Duration : 2 h 9 min
Bit rate mode : Variable
Bit rate : 32.9 Mb/s
Maximum bit rate : 37.0 Mb/s
Width : 1 920 pixels
Height : 1 080 pixels
Display aspect ratio : 16:9
Frame rate mode : Constant
Frame rate : 23.976 (24000/1001) FPS
Color space : YUV
Chroma subsampling : 4:2:0
Bit depth : 8 bits
Scan type : Progressive
Bits/(Pixel*Frame) : 0.661
Stream size : 29.8 GiB (90%)
Language : English
Default : No
Forced : No
Original source medium : Blu-ray

Audio #1
ID : 2
ID in the original source medium : 4352 (0x1100)
Format : DTS XLL
Format/Info : Digital Theater Systems
Commercial name : DTS-HD Master Audio
Codec ID : A_DTS
Duration : 2 h 9 min
Bit rate mode : Variable
Bit rate : 3 347 kb/s
Channel(s) : 6 channels
Channel layout : C L R Ls Rs LFE
Sampling rate : 48.0 kHz
Frame rate : 93.750 FPS (512 SPF)
Bit depth : 24 bits
Compression mode : Lossless
Stream size : 3.03 GiB (9%)
Title : DTS-HD MA 5.1
Language : English
Default : Yes
Forced : No
Original source medium : Blu-ray

Audio #2
ID : 3
ID in the original source medium : 4353 (0x1101)
Format : AC-3
Format/Info : Audio Coding 3
Commercial name : Dolby Digital
Format settings : Dolby Surround
Codec ID : A_AC3
Duration : 2 h 9 min
Bit rate mode : Constant
Bit rate : 192 kb/s
Channel(s) : 2 channels
Channel layout : L R
Sampling rate : 48.0 kHz
Frame rate : 31.250 FPS (1536 SPF)
Compression mode : Lossy
Stream size : 178 MiB (1%)
Title : DD 2.0
Language : English
Service kind : Complete Main
Default : No
Forced : No
Original source medium : Blu-ray

Text #1
ID : 4
Format : UTF-8
Codec ID : S_TEXT/UTF8
Codec ID/Info : UTF-8 Plain Text
Duration : 2 h 2 min
Bit rate : 57 b/s
Count of elements : 1470
Stream size : 51.0 KiB (0%)
Title : English-SRT
Language : English
Default : Yes
Forced : No

Text #2
ID : 5
ID in the original source medium : 4608 (0x1200)
Format : PGS
Muxing mode : zlib
Codec ID : S_HDMV/PGS
Codec ID/Info : Picture based subtitle format used on BDs/HD-DVDs
Duration : 2 h 6 min
Bit rate : 41.5 kb/s
Count of elements : 3379
Stream size : 37.4 MiB (0%)
Title : English-PGS
Language : English
Default : No
Forced : No
Original source medium : Blu-ray

Text #3
ID : 6
ID in the original source medium : 4609 (0x1201)
Format : PGS
Muxing mode : zlib
Codec ID : S_HDMV/PGS
Codec ID/Info : Picture based subtitle format used on BDs/HD-DVDs
Duration : 2 h 8 min
Bit rate : 34.8 kb/s
Count of elements : 3129
Stream size : 31.9 MiB (0%)
Title : Spanish-PGS
Language : Spanish
Default : No
Forced : No
Original source medium : Blu-ray

Menu
00:00:00.000 : Chapter 01
00:06:19.087 : Chapter 02
00:13:57.044 : Chapter 03
00:23:45.340 : Chapter 04
00:33:02.313 : Chapter 05
00:38:05.366 : Chapter 06
00:44:37.174 : Chapter 07
00:50:53.717 : Chapter 08
00:55:12.392 : Chapter 09
00:59:20.557 : Chapter 10
01:03:25.802 : Chapter 11
01:11:05.678 : Chapter 12
01:17:47.537 : Chapter 13
01:23:29.337 : Chapter 14
01:31:24.937 : Chapter 15
01:39:59.159 : Chapter 16
01:46:10.655 : Chapter 17
01:54:12.762 : Chapter 18
01:59:40.298 : Chapter 19
02:04:22.121 : Chapter 20

本帖子中包含更多资源

您需要 登录 才可以下载或查看,没有帐号?立即注册

x
回复

使用道具 举报

0

主题

774

帖子

3045

积分

论坛元老

Rank: 8Rank: 8

积分
3045
发表于 2021-5-2 16:25:27 | 显示全部楼层
感谢楼主分享
回复

使用道具 举报

0

主题

774

帖子

3045

积分

论坛元老

Rank: 8Rank: 8

积分
3045
发表于 2021-5-2 17:05:07 | 显示全部楼层
感谢楼主分享
回复

使用道具 举报

0

主题

307

帖子

1436

积分

金牌会员

Rank: 6Rank: 6

积分
1436
发表于 7 天前 | 显示全部楼层
感谢楼主
回复

使用道具 举报

0

主题

136

帖子

285

积分

中级会员

Rank: 3Rank: 3

积分
285
发表于 5 天前 | 显示全部楼层
感谢楼主分享高清影片
回复

使用道具 举报

您需要登录后才可以回帖 登录 | 立即注册

本版积分规则

QQ|Archiver|手机版|小黑屋|原盘天堂 好多盘 点击这里给我发消息

GMT+8, 2021-5-11 15:20 , Processed in 0.056108 second(s), 25 queries .

Powered by Discuz! X3.4

Copyright © 2001-2020, Tencent Cloud.

快速回复 返回顶部 返回列表