请选择 进入手机版 | 继续访问电脑版
本站Q群713428235【盘盘多】已满,请新会员加原盘天堂新官方QQ群709708625【好多盘】,验证信息填写您在论坛的会员名,不填会员名的无法入群哈,进群后修改您的群名片名字为您在论坛的会员名,请务必修改,否则群成员多了不知道您是哪个会员。

原盘天堂

 找回密码
 立即注册
京东商城当当华为商城名牌时尚折扣网,一个新型的网上购物平台,我们每周为您精选3~4个国际知名品牌,商品折扣低至2折限时限量售卖,商品囊括时装、护肤品、箱包、皮具、配饰、香水等等,琳琅满目。亿格瑞A10硬盘播放器 苏宁易购
查看: 152|回复: 15

4k蓝光原盘bdmv 死亡幻觉 英语原版 donnie.darko.2001.dc.2160p.bluray.hevc.dts-hd.ma.5.1[91.81 GB]

[复制链接]

5958

主题

6605

帖子

132万

积分

管理员

Rank: 18Rank: 18Rank: 18Rank: 18Rank: 18

积分
1329763
发表于 2021-4-24 23:25:17 | 显示全部楼层 |阅读模式








死亡幻觉 Donnie Darko (2001)

◎译  名 死亡幻觉/怵目惊魂28天(台)/唐尼・达克
◎片  名 Donnie Darko
◎年  代 2001
◎产  地 美国
◎类  别 剧情/科幻/悬疑/惊悚
◎语  言 英语
◎上映日期 2001-01-19(圣丹斯电影节)/2001-10-26(美国)
◎IMDb链接  https://www.imdb.com/title/tt0246578/
◎豆瓣评分 7.3/10 from 73956 users
◎豆瓣链接 https://douban.com/subject/1306662/
◎片  长 113分钟
◎导  演 理查德·凯利 Richard Kelly
◎编  剧 理查德·凯利 Richard Kelly
◎主  演 杰克·吉伦哈尔 Jake Gyllenhaal
       霍尔姆斯·奥斯本 Holmes Osborne
       玛吉·吉伦哈尔 Maggie Gyllenhaal
       黛维·切斯 Daveigh Chase
       玛丽·麦克唐纳 Mary McDonnell
       詹姆斯·杜瓦尔 James Duval
       亚瑟·塔谢尔 Arthur Taxier
       帕特里克·斯威兹 Patrick Swayze
       大卫·圣.詹姆斯 David St. James
       Tom Tangen
       茱莲妮·普迪 Jolene Purdy
       Alex Greenwald
       贝丝·格兰特 Beth Grant
       吉娜·马隆 Jena Malone
       塞斯·罗根 Seth Rogen
       诺亚·怀尔 Noah Wyle
       德鲁·巴里摩尔 Drew Barrymore
       Kristina Malota
       Marina Malota
       泰勒·佩克 Tiler Peck
       Patience Cleveland
       凯瑟琳·罗斯 Katharine Ross
       Jack Salvatore Jr.
       李韦弗 Lee Weaver
       菲利斯·里昂斯 Phyllis Lyons
       阿什丽·提斯代尔 Ashley Tisdale
       杰瑞·特雷纳 Jerry Trainor
       琼·布莱尔 Joan Blair
       弗兰·克朗茨 Fran Kranz
       史考蒂·莱文沃斯 Scotty Leavenworth
       乔治·布什 George Bush
       Michael Dukakis
       菲尔霍恩 Phil Hawn
       南希·朱沃南 Nancy Juvonen
       迪伊·奥斯汀·罗伯逊 Dee Austin Robertson
       Jack Truman

◎标  签 悬疑 | 科幻 | 美国 | 惊悚 | JakeGyllenhaal | 美国电影 | 2001 | 黑色

◎简  介

  
  丹尼•达可(杰克•盖伦霍尔 饰)患有精神疾病,某天晚  上他受到莫名的召唤,梦游,也因此逃避了一架飞机坠落在他房间天花板上,这样匪夷所思的事故。
  
  自此以后,他的生活就发生了变化,频频出现幻觉,他时常看见一个兔人弗兰克,后者告诉他世界将在28天6小时48分12秒以后毁灭;他得到了一本书,《时空旅行奥义书》,对书中提到的时空旅行、离线宇宙产生了强烈的好奇。
  
  随着世界末日的临近,杰克的生活越来约诡异,他新认识的女朋友和家人也被卷了进去。看来,杰克想实现拯救世界的愿望,需要付出更多的代价。
  
DISC INFO:

Disc Title:     Donnie.Darko.2001.DC.2160p.BluRay.HEVC.DTS-HD.MA.5.1-ESiR
Disc Size:      98,557,781,179 bytes
Protection:     AACS2
Extras:         Ultra HD
BDInfo:         0.7.5.9 (compatible layout created by DVDFab 12.0.2.6)

PLAYLIST REPORT:

Name:                   00000.MPLS  
Length:                 2:13:51.023 (h:m:s.ms)
Size:                   88,416,319,488 bytes
Total Bitrate:          88.07 Mbps

(*) Indicates included stream hidden by this playlist.

VIDEO:

Codec                   Bitrate             Description     
-----                   -------             -----------     
MPEG-H HEVC Video       81195 kbps          2160p / 23.976 fps / 16:9 / Main 10 @ Level 5.1 @ High / 4:2:0 / 10 bits / 1000nits / HDR10 / BT.2020
* MPEG-H HEVC Video     78 kbps (0.10%)     1080p / 23.976 fps / 16:9 / Main 10 @ Level 5.1 @ High / 4:2:0 / 10 bits / 1000nits / Dolby Vision MEL / BT.2020

AUDIO:

Codec                           Language        Bitrate         Description     
-----                           --------        -------         -----------     
DTS-HD Master Audio             English         2542 kbps       5.1 / 48 kHz / 2542 kbps / 24-bit (DTS Core: 5.1 / 48 kHz / 1509 kbps / 24-bit)
Dolby Digital Audio             English         192 kbps        2.0 / 48 kHz / 192 kbps

SUBTITLES:

Codec                           Language        Bitrate         Description     
-----                           --------        -------         -----------     
Presentation Graphics           English         26.037 kbps   

Video
ID : 1
ID in the original source medium : 4113 (0x1011)
Format : HEVC
Format/Info : High Efficiency Video Coding
Format profile : Main [email protected]@High
HDR format : SMPTE ST 2086, HDR10 compatible
Codec ID : V_MPEGH/ISO/HEVC
Duration : 2 h 13 min
Bit rate : 81.2 Mb/s
Width : 3 840 pixels
Height : 2 160 pixels
Display aspect ratio : 16:9
Frame rate mode : Constant
Frame rate : 23.976 (24000/1001) FPS
Color space : YUV
Chroma subsampling : 4:2:0 (Type 2)
Bit depth : 10 bits
Bits/(Pixel*Frame) : 0.408
Stream size : 75.9 GiB (96%)
Language : English
Default : No
Forced : No
Color range : Limited
Color primaries : BT.2020
Transfer characteristics : PQ
Matrix coefficients : BT.2020 non-constant
Mastering display color primaries : BT.2020
Mastering display luminance : min: 0.0001 cd/m2, max: 1000 cd/m2
Original source medium : Blu-ray

Audio #1
ID : 2
ID in the original source medium : 4352 (0x1100)
Format : DTS XLL
Format/Info : Digital Theater Systems
Commercial name : DTS-HD Master Audio
Codec ID : A_DTS
Duration : 2 h 13 min
Bit rate mode : Variable
Bit rate : 2 542 kb/s
Channel(s) : 6 channels
Channel layout : C L R Ls Rs LFE
Sampling rate : 48.0 kHz
Frame rate : 93.750 FPS (512 SPF)
Bit depth : 24 bits
Compression mode : Lossless
Delay relative to video : 1 s 1 ms
Stream size : 2.38 GiB (3%)
Title : DTS-HD MA 5.1
Language : English
Default : Yes
Forced : No
Original source medium : Blu-ray

Audio #2
ID : 3
Format : AC-3
Format/Info : Audio Coding 3
Commercial name : Dolby Digital
Codec ID : A_AC3
Duration : 2 h 13 min
Bit rate mode : Constant
Bit rate : 640 kb/s
Channel(s) : 6 channels
Channel layout : L R C LFE Ls Rs
Sampling rate : 48.0 kHz
Frame rate : 31.250 FPS (1536 SPF)
Compression mode : Lossy
Stream size : 613 MiB (1%)
Title : DD 5.1
Language : English
Service kind : Complete Main
Default : No
Forced : No

Audio #3
ID : 4
ID in the original source medium : 4353 (0x1101)
Format : AC-3
Format/Info : Audio Coding 3
Commercial name : Dolby Digital
Codec ID : A_AC3
Duration : 2 h 13 min
Bit rate mode : Constant
Bit rate : 192 kb/s
Channel(s) : 2 channels
Channel layout : L R
Sampling rate : 48.0 kHz
Frame rate : 31.250 FPS (1536 SPF)
Compression mode : Lossy
Delay relative to video : 1 s 1 ms
Stream size : 184 MiB (0%)
Title : DD 2.0
Language : English
Service kind : Complete Main
Default : No
Forced : No
Original source medium : Blu-ray

Text #1
ID : 5
Format : UTF-8
Codec ID : S_TEXT/UTF8
Codec ID/Info : UTF-8 Plain Text
Duration : 2 h 10 min
Bit rate : 43 b/s
Count of elements : 1045
Stream size : 41.2 KiB (0%)
Title : English-SRT
Language : English
Default : Yes
Forced : No

Text #2
ID : 6
ID in the original source medium : 4768 (0x12A0)
Format : PGS
Muxing mode : zlib
Codec ID : S_HDMV/PGS
Codec ID/Info : Picture based subtitle format used on BDs/HD-DVDs
Duration : 2 h 13 min
Bit rate : 26.1 kb/s
Count of elements : 2204
Stream size : 24.9 MiB (0%)
Title : English-PGS
Language : English
Default : No
Forced : No
Original source medium : Blu-ray

Menu
00:00:00.000 : Chapter 01
00:09:38.035 : Chapter 02
00:18:11.882 : Chapter 03
00:27:07.792 : Chapter 04
00:38:41.402 : Chapter 05
00:50:58.096 : Chapter 06
01:05:16.996 : Chapter 07
01:18:40.090 : Chapter 08
01:29:48.966 : Chapter 09
01:44:39.064 : Chapter 10
01:51:09.371 : Chapter 11
02:03:17.431 : Chapter 12

本帖子中包含更多资源

您需要 登录 才可以下载或查看,没有帐号?立即注册

x
回复

使用道具 举报

0

主题

696

帖子

3547

积分

论坛元老

Rank: 8Rank: 8

积分
3547
发表于 2021-4-25 10:04:41 | 显示全部楼层
谢楼主分享
回复

使用道具 举报

0

主题

307

帖子

1436

积分

金牌会员

Rank: 6Rank: 6

积分
1436
发表于 2021-4-25 10:30:41 | 显示全部楼层
谢谢分享   楼主辛苦
回复

使用道具 举报

0

主题

771

帖子

3886

积分

论坛元老

Rank: 8Rank: 8

积分
3886
发表于 2021-4-25 10:38:46 | 显示全部楼层










回复

使用道具 举报

0

主题

4

帖子

10

积分

新手上路

Rank: 1

积分
10
发表于 2021-4-26 02:38:46 | 显示全部楼层
点半左右过来,
回复

使用道具 举报

0

主题

696

帖子

3547

积分

论坛元老

Rank: 8Rank: 8

积分
3547
发表于 2021-4-26 09:56:49 | 显示全部楼层
谢楼主分享
回复

使用道具 举报

0

主题

1216

帖子

5137

积分

论坛元老

Rank: 8Rank: 8

积分
5137
发表于 2021-4-26 12:18:50 | 显示全部楼层
感谢楼主分享高清影片
回复

使用道具 举报

0

主题

1

帖子

7

积分

新手上路

Rank: 1

积分
7
发表于 2021-4-26 15:37:18 | 显示全部楼层
谢谢楼主分享,楼主辛苦了。
回复

使用道具 举报

0

主题

321

帖子

1869

积分

金牌会员

Rank: 6Rank: 6

积分
1869
发表于 2021-4-26 19:17:31 | 显示全部楼层
谢楼主分享
回复

使用道具 举报

0

主题

774

帖子

3045

积分

论坛元老

Rank: 8Rank: 8

积分
3045
发表于 2021-4-27 10:13:37 | 显示全部楼层
谢谢楼主分享
回复

使用道具 举报

您需要登录后才可以回帖 登录 | 立即注册

本版积分规则

QQ|Archiver|手机版|小黑屋|原盘天堂 好多盘 点击这里给我发消息

GMT+8, 2021-5-11 15:14 , Processed in 0.060962 second(s), 24 queries .

Powered by Discuz! X3.4

Copyright © 2001-2020, Tencent Cloud.

快速回复 返回顶部 返回列表