请选择 进入手机版 | 继续访问电脑版
本站Q群713428235【盘盘多】已满,请新会员加原盘天堂新官方QQ群709708625【好多盘】,验证信息填写您在论坛的会员名,不填会员名的无法入群哈,进群后修改您的群名片名字为您在论坛的会员名,请务必修改,否则群成员多了不知道您是哪个会员。

原盘天堂

 找回密码
 立即注册
京东商城当当华为商城名牌时尚折扣网,一个新型的网上购物平台,我们每周为您精选3~4个国际知名品牌,商品折扣低至2折限时限量售卖,商品囊括时装、护肤品、箱包、皮具、配饰、香水等等,琳琅满目。亿格瑞A10硬盘播放器 苏宁易购
查看: 111|回复: 5

2d蓝光原盘bdmv 成真 英语原版 come.true.2020.1080p.bluray.avc.dts-hd.ma.5.1[32.74 GB]

[复制链接]

5958

主题

6606

帖子

132万

积分

管理员

Rank: 18Rank: 18Rank: 18Rank: 18Rank: 18

积分
1329770
发表于 2021-4-24 22:51:27 | 显示全部楼层 |阅读模式






成真 Come True (2020)

◎译  名 成真/噩梦成真
◎片  名 Come True
◎年  代 2020
◎产  地 加拿大
◎类  别 科幻/恐怖
◎语  言 英语
◎上映日期 2020-08-30(加拿大)
◎IMDb链接  https://www.imdb.com/title/tt7026488/
◎豆瓣评分 5.6/10 from 468 users
◎豆瓣链接 https://douban.com/subject/30257430/
◎片  长 105分钟
◎导  演 安东尼·司科特·伯恩斯 Anthony Scott Burns
◎编  剧 安东尼·司科特·伯恩斯 Anthony Scott Burns
◎主  演 兰登·莱伯隆 Landon Liboiron
       茱莉亚·莎拉·斯通 Julia Sarah Stone
       蒂芙妮·赫尔姆 Tiffany Helm
       Caroline Buzanko

◎标  签 惊悚 | 科幻 | 恐怖 | 加拿大 | 悬疑 | 2020 | 加拿大电影 | 美国

◎简  介

  
  还在念高中的Sarah正值低潮,她逃家却发现自己没有人可以依靠,同时又被反复出现的可怕恶梦所苦。很幸运的,正好有一所大学在进行睡梦研究,Sarah不但可以安全地睡觉,还可以获得报酬,更意外的和负责研究实验的科学家Jeremy(蓝顿莱柏隆饰)成了知心好友。参加实验让Sarah的恶梦更加剧烈,梦中的影子生物似乎更加强大。随着黑暗的脚步越来越接近,Sarah在不知不觉中成了一个可怕新发现的连接管道……。
  
DISC INFO:

Disc Title:     Come.True.2020.COMPLETE.BLURAY-iNTEGRUM
Disc Size:      35,159,114,156 bytes
Protection:     AACS
BDInfo:         0.7.5.9 (compatible layout created by DVDFab 12.0.2.6)

PLAYLIST REPORT:

Name:                   00000.MPLS  
Length:                 1:45:11.763 (h:m:s.ms)
Size:                   33,015,177,216 bytes
Total Bitrate:          41.85 Mbps

VIDEO:

Codec                   Bitrate             Description     
-----                   -------             -----------     
MPEG-4 AVC Video        33991 kbps          1080p / 23.976 fps / 16:9 / High Profile 4.1

AUDIO:

Codec                           Language        Bitrate         Description     
-----                           --------        -------         -----------     
LPCM Audio                      English         2304 kbps       2.0 / 48 kHz / 2304 kbps / 24-bit
DTS-HD Master Audio             English         3524 kbps       5.1 / 48 kHz / 3524 kbps / 24-bit (DTS Core: 5.1 / 48 kHz / 768 kbps / 24-bit)

SUBTITLES:

Codec                           Language        Bitrate         Description     
-----                           --------        -------         -----------     
Presentation Graphics           English         17.965 kbps   

Video
ID : 1
ID in the original source medium : 4113 (0x1011)
Format : AVC
Format/Info : Advanced Video Codec
Format profile : [email protected]
Format settings : CABAC / 4 Ref Frames
Format settings, CABAC : Yes
Format settings, Reference frames : 4 frames
Codec ID : V_MPEG4/ISO/AVC
Duration : 1 h 45 min
Bit rate mode : Variable
Bit rate : 33.3 Mb/s
Maximum bit rate : 38.0 Mb/s
Width : 1 920 pixels
Height : 1 080 pixels
Display aspect ratio : 16:9
Frame rate mode : Constant
Frame rate : 23.976 (24000/1001) FPS
Color space : YUV
Chroma subsampling : 4:2:0
Bit depth : 8 bits
Scan type : Progressive
Bits/(Pixel*Frame) : 0.670
Stream size : 24.5 GiB (85%)
Language : English
Default : No
Forced : No
Original source medium : Blu-ray

Audio #1
ID : 2
ID in the original source medium : 4353 (0x1101)
Format : DTS XLL
Format/Info : Digital Theater Systems
Commercial name : DTS-HD Master Audio
Codec ID : A_DTS
Duration : 1 h 45 min
Bit rate mode : Variable
Bit rate : 3 524 kb/s
Channel(s) : 6 channels
Channel layout : C L R Ls Rs LFE
Sampling rate : 48.0 kHz
Frame rate : 93.750 FPS (512 SPF)
Bit depth : 24 bits
Compression mode : Lossless
Stream size : 2.59 GiB (9%)
Title : DTS-HD MA 5.1
Language : English
Default : Yes
Forced : No
Original source medium : Blu-ray

Audio #2
ID : 3
ID in the original source medium : 4352 (0x1100)
Format : PCM
Format settings : Little / Signed
Codec ID : A_PCM/INT/LIT
Duration : 1 h 45 min
Bit rate mode : Constant
Bit rate : 2 304 kb/s
Channel(s) : 2 channels
Sampling rate : 48.0 kHz
Frame rate : 30.000 FPS (1600 SPF)
Bit depth : 24 bits
Stream size : 1.69 GiB (6%)
Title : LPCM 2.0
Language : English
Default : No
Forced : No
Original source medium : Blu-ray

Text
ID : 4
Format : UTF-8
Codec ID : S_TEXT/UTF8
Codec ID/Info : UTF-8 Plain Text
Duration : 1 h 38 min
Bit rate : 24 b/s
Count of elements : 666
Stream size : 17.4 KiB (0%)
Title : English-SRT
Language : English
Default : Yes
Forced : No

Menu
00:00:00.000 : Chapter 01
00:06:01.027 : Chapter 02
00:13:51.664 : Chapter 03
00:24:34.097 : Chapter 04
00:37:18.986 : Chapter 05
00:46:50.474 : Chapter 06
00:55:42.714 : Chapter 07
01:02:43.301 : Chapter 08
01:11:58.939 : Chapter 09
01:20:21.650 : Chapter 10
01:28:32.390 : Chapter 11
01:38:26.734 : Chapter 12

本帖子中包含更多资源

您需要 登录 才可以下载或查看,没有帐号?立即注册

x
回复

使用道具 举报

0

主题

696

帖子

3547

积分

论坛元老

Rank: 8Rank: 8

积分
3547
发表于 2021-4-25 10:06:12 | 显示全部楼层
谢楼主分享
回复

使用道具 举报

0

主题

307

帖子

1436

积分

金牌会员

Rank: 6Rank: 6

积分
1436
发表于 2021-4-25 10:31:46 | 显示全部楼层
谢谢分享   楼主辛苦
回复

使用道具 举报

0

主题

771

帖子

3886

积分

论坛元老

Rank: 8Rank: 8

积分
3886
发表于 2021-4-25 10:37:29 | 显示全部楼层










回复

使用道具 举报

0

主题

1216

帖子

5137

积分

论坛元老

Rank: 8Rank: 8

积分
5137
发表于 2021-4-26 12:24:48 | 显示全部楼层
感谢楼主分享高清影片
回复

使用道具 举报

0

主题

307

帖子

1436

积分

金牌会员

Rank: 6Rank: 6

积分
1436
发表于 2021-4-28 11:47:40 | 显示全部楼层
谢谢分享   楼主辛苦
回复

使用道具 举报

您需要登录后才可以回帖 登录 | 立即注册

本版积分规则

QQ|Archiver|手机版|小黑屋|原盘天堂 好多盘 点击这里给我发消息

GMT+8, 2021-5-11 16:04 , Processed in 0.058789 second(s), 25 queries .

Powered by Discuz! X3.4

Copyright © 2001-2020, Tencent Cloud.

快速回复 返回顶部 返回列表